HDTV MTV Video Music Awards 2009 1080i HDTV DD5.1 MPEG2-CtrlHD

Discussion in 'HD Live Performances' started by Scherzyboy, Apr 3, 2020.

  1. Scherzyboy

    Scherzyboy Super Moderator Staff Member Super Moderator V . I . P. Uploader Archiver

    Joined:
    May 14, 2015
    Messages:
    1,432
    Likes Received:
    2,309
    This is the complete show. For the pre-show click here.

    [​IMG]

    General
    ID : 1 (0x1)
    Complete name : MTV Video Music Awards 2009 1080i HDTV DD5.1 MPEG2-CtrlHD.ts
    Format : MPEG-TS
    File size : 11.9 GiB
    Duration : 1 h 50 min
    Overall bit rate mode : Variable
    Overall bit rate : 15.4 Mb/s
    Law rating : TV-14 (DL)

    Video
    ID : 33 (0x21)
    Menu ID : 1 (0x1)
    Format : MPEG Video
    Format version : Version 2
    Format profile : Main@High
    Format settings : CustomMatrix / BVOP
    Format settings, BVOP : Yes
    Format settings, Matrix : Custom
    Format settings, GOP : M=3, N=15
    Format settings, picture st : Frame
    Codec ID : 2
    Duration : 1 h 50 min
    Bit rate mode : Variable
    Bit rate : 14.2 Mb/s
    Maximum bit rate : 18.0 Mb/s
    Width : 1 920 pixels
    Height : 1 080 pixels
    Display aspect ratio : 16:9
    Frame rate : 29.970 (30000/1001) FPS
    Color space : YUV
    Chroma subsampling : 4:2:0
    Bit depth : 8 bits
    Scan type : Interlaced
    Scan order : Top Field First
    Compression mode : Lossy
    Bits/(Pixel*Frame) : 0.229
    Time code of first frame : 00:00:00;00
    Time code source : Group of pictures header
    GOP, Open/Closed : Open
    GOP, Open/Closed of first f : Closed
    Stream size : 11.0 GiB (93%)

    Audio
    ID : 36 (0x24)
    Menu ID : 1 (0x1)
    Format : AC-3
    Format/Info : Audio Coding 3
    Commercial name : Dolby Digital
    Codec ID : 129
    Duration : 1 h 50 min
    Bit rate mode : Constant
    Bit rate : 384 kb/s
    Channel(s) : 6 channels
    Channel layout : L R C LFE Ls Rs
    Sampling rate : 48.0 kHz
    Frame rate : 31.250 FPS (1536 SPF)
    Bit depth : 16 bits
    Compression mode : Lossy
    Stream size : 305 MiB (2%)
    Service kind : Complete Main

    Text #1
    ID : 33 (0x21)-CC1
    Menu ID : 1 (0x1)
    Format : EIA-608
    Muxing mode : A/53 / DTVCC Transport
    Muxing mode, more info : Muxed in Video #1
    Duration : 1 h 50 min
    Bit rate mode : Constant
    Stream size : 0.00 Byte (0%)
    CaptionServiceName : CC1

    Text #2
    ID : 33 (0x21)-1
    Menu ID : 1 (0x1)
    Format : EIA-708
    Muxing mode : A/53 / DTVCC Transport
    Muxing mode, more info : Muxed in Video #1
    Duration : 1 h 50 min
    Bit rate mode : Constant
    Stream size : 0.00 Byte (0%)

    [​IMG] Link:
    Hidden Content:
    You must either reply or click 'Like' to see the hidden information contained here.
     
  2. Loading...


  3. MichelleBright

    MichelleBright Well-Known Member

    Joined:
    Jul 20, 2019
    Messages:
    1,220
    Likes Received:
    195
    Many thanks, appreciate this :)
     
  4. henri_quex

    henri_quex Well-Known Member

    Joined:
    May 15, 2018
    Messages:
    2,467
    Likes Received:
    339
    Thank u very much!
     
  5. henri_quex

    henri_quex Well-Known Member

    Joined:
    May 15, 2018
    Messages:
    2,467
    Likes Received:
    339
    Hi @Scherzyboy , whe I try to download its asking for permission...can you fix it? Thank you <3
     
  6. rasputin

    rasputin Well-Known Member

    Joined:
    Dec 9, 2015
    Messages:
    1,655
    Likes Received:
    131
    thanx
     
  7. Shadizz

    Shadizz Member

    Joined:
    Apr 14, 2017
    Messages:
    77
    Likes Received:
    2
    Thank you so much for replying to my request ! I'ma go download this right now ! Thank you once again
     
  8. Shadizz

    Shadizz Member

    Joined:
    Apr 14, 2017
    Messages:
    77
    Likes Received:
    2
    It's also asking me for permission :/
     
  9. channel003

    channel003 Well-Known Member

    Joined:
    Nov 23, 2013
    Messages:
    881
    Likes Received:
    514
    Thank you!
     
  10. Scherzyboy

    Scherzyboy Super Moderator Staff Member Super Moderator V . I . P. Uploader Archiver

    Joined:
    May 14, 2015
    Messages:
    1,432
    Likes Received:
    2,309
    Privacy updated. Now everybody can download the file.
     
  11. Jenkins

    Jenkins Well-Known Member

    Joined:
    May 30, 2019
    Messages:
    24,612
    Likes Received:
    640
    Russell Brand? Oh no. Kill me.

    Thanks for uploading this dude.
     
  12. Tommyboy

    Tommyboy Well-Known Member

    Joined:
    Oct 23, 2016
    Messages:
    1,347
    Likes Received:
    55
    G.Tanks
     
  13. cesar140380

    cesar140380 Member

    Joined:
    Aug 29, 2016
    Messages:
    106
    Likes Received:
    12
    thanks you so much
     
  14. TheTigger

    TheTigger Active Member

    Joined:
    Dec 24, 2018
    Messages:
    347
    Likes Received:
    45
    Thank you for this show !
     
  15. massej

    massej Member

    Joined:
    Oct 1, 2016
    Messages:
    166
    Likes Received:
    10
    Thanks
     
  16. Lesmo

    Lesmo Active Member Archiver

    Joined:
    Mar 15, 2017
    Messages:
    399
    Likes Received:
    107
    Thanhs
     
  17. nino.navy

    nino.navy Well-Known Member

    Joined:
    May 30, 2014
    Messages:
    4,401
    Likes Received:
    345
    thanks a lot
     
  18. dzenailyjohn

    dzenailyjohn Active Member

    Joined:
    Oct 21, 2015
    Messages:
    348
    Likes Received:
    25
  19. rcpertv1

    rcpertv1 Member

    Joined:
    Mar 30, 2019
    Messages:
    259
    Likes Received:
    20
    yessssss
     
  20. Alejo3110

    Alejo3110 Member

    Joined:
    Dec 11, 2016
    Messages:
    123
    Likes Received:
    15
    thanksssssss
     
  21. kiiwii

    kiiwii Active Member

    Joined:
    Oct 10, 2013
    Messages:
    580
    Likes Received:
    26
    thnx u very much