HDTV MTV Video Music Awards 2008 -14X performances - 1080i

Discussion in 'HD Live Performances' started by KaiKawaii, Apr 29, 2018.

  1. yannick1980

    yannick1980 Member

    Joined:
    Apr 29, 2018
    Messages:
    90
    Likes Received:
    2
    Thank you so much!
     
  2. Jhguh

    Jhguh Member

    Joined:
    Feb 27, 2018
    Messages:
    59
    Likes Received:
    5
    thanks
    [​IMG]
    Code:
    General
    ID                             : 1 (0x1)
    Complete name                  : D:\01 Rihanna - Disturbia & Seven Nation Army - MTV Video Music Awards 2008 1080i.ts
    Format                         : MPEG-TS
    File size                      : 685 MiB
    Duration                       : 5 min 7 s
    Overall bit rate mode          : Variable
    Overall bit rate               : 18.7 Mb/s
    Law rating                     : TV-PG
    
    Video
    ID                             : 33 (0x21)
    Menu ID                        : 1 (0x1)
    Format                         : MPEG Video
    Format version                 : Version 2
    Format profile                 : Main@High
    Format settings, BVOP          : Yes
    Format settings, Matrix        : Custom
    Format settings, GOP           : Variable
    Format settings, picture struc : Frame
    Codec ID                       : 2
    Duration                       : 5 min 7 s
    Bit rate mode                  : Variable
    Bit rate                       : 17.4 Mb/s
    Maximum bit rate               : 18.1 Mb/s
    Width                          : 1 920 pixels
    Height                         : 1 080 pixels
    Display aspect ratio           : 16:9
    Frame rate                     : 29.970 (30000/1001) FPS
    Standard                       : Component
    Color space                    : YUV
    Chroma subsampling             : 4:2:0
    Bit depth                      : 8 bits
    Scan type                      : Interlaced
    Scan order                     : Top Field First
    Compression mode               : Lossy
    Bits/(Pixel*Frame)             : 0.280
    Time code of first frame       : 00:00:13;28
    Time code source               : Group of pictures header
    GOP, Open/Closed               : Open
    Stream size                    : 636 MiB (93%)
    Color primaries                : BT.709
    Transfer characteristics       : BT.709
    Matrix coefficients            : BT.709
    
    Audio
    ID                             : 36 (0x24)
    Menu ID                        : 1 (0x1)
    Format                         : AC-3
    Format/Info                    : Audio Coding 3
    Format settings, Endianness    : Big
    Codec ID                       : 6
    Duration                       : 5 min 7 s
    Bit rate mode                  : Constant
    Bit rate                       : 384 kb/s
    Channel(s)                     : 2 channels
    Channel positions              : Front: L R
    Sampling rate                  : 48.0 kHz
    Frame rate                     : 31.250 FPS (1536 SPF)
    Bit depth                      : 16 bits
    Compression mode               : Lossy
    Delay relative to video        : 24 ms
    Stream size                    : 14.1 MiB (2%)
    Language                       : German
    Language, more info            : Clean effects
    Service kind                   : Complete Main
    
    Text #1
    ID                             : 33 (0x21)-CC1
    Menu ID                        : 1 (0x1)
    Format                         : EIA-608
    Muxing mode                    : A/53 / DTVCC Transport
    Muxing mode, more info         : Muxed in Video #1
    Duration                       : 5 min 7 s
    Bit rate mode                  : Constant
    Stream size                    : 0.00 Byte (0%)
    CaptionServiceName             : CC1
    
    Text #2
    ID                             : 33 (0x21)-1
    Menu ID                        : 1 (0x1)
    Format                         : EIA-708
    Muxing mode                    : A/53 / DTVCC Transport
    Muxing mode, more info         : Muxed in Video #1
    Duration                       : 5 min 7 s
    Bit rate mode                  : Constant
    Stream size                    : 0.00 Byte (0%)
    [/SPOILER]

    [​IMG]
    Code:
    General
    ID                             : 1 (0x1)
    Complete name                  : D:\02 The Jonas Brothers - Lovebug - MTV Video Music Awards 2008 1080i.ts
    Format                         : MPEG-TS
    File size                      : 477 MiB
    Duration                       : 3 min 32 s
    Overall bit rate mode          : Variable
    Overall bit rate               : 18.9 Mb/s
    Law rating                     : TV-PG
    
    Video
    ID                             : 33 (0x21)
    Menu ID                        : 1 (0x1)
    Format                         : MPEG Video
    Format version                 : Version 2
    Format profile                 : Main@High
    Format settings, BVOP          : Yes
    Format settings, Matrix        : Custom
    Format settings, GOP           : Variable
    Format settings, picture struc : Frame
    Codec ID                       : 2
    Duration                       : 3 min 32 s
    Bit rate mode                  : Variable
    Bit rate                       : 17.5 Mb/s
    Maximum bit rate               : 18.1 Mb/s
    Width                          : 1 920 pixels
    Height                         : 1 080 pixels
    Display aspect ratio           : 16:9
    Frame rate                     : 29.970 (30000/1001) FPS
    Standard                       : Component
    Color space                    : YUV
    Chroma subsampling             : 4:2:0
    Bit depth                      : 8 bits
    Scan type                      : Interlaced
    Scan order                     : Top Field First
    Compression mode               : Lossy
    Bits/(Pixel*Frame)             : 0.282
    Time code of first frame       : 00:05:23;22
    Time code source               : Group of pictures header
    GOP, Open/Closed               : Open
    Stream size                    : 444 MiB (93%)
    Color primaries                : BT.709
    Transfer characteristics       : BT.709
    Matrix coefficients            : BT.709
    
    Audio
    ID                             : 36 (0x24)
    Menu ID                        : 1 (0x1)
    Format                         : AC-3
    Format/Info                    : Audio Coding 3
    Format settings, Endianness    : Big
    Codec ID                       : 6
    Duration                       : 3 min 32 s
    Bit rate mode                  : Constant
    Bit rate                       : 384 kb/s
    Channel(s)                     : 2 channels
    Channel positions              : Front: L R
    Sampling rate                  : 48.0 kHz
    Frame rate                     : 31.250 FPS (1536 SPF)
    Bit depth                      : 16 bits
    Compression mode               : Lossy
    Delay relative to video        : 23 ms
    Stream size                    : 9.73 MiB (2%)
    Language                       : German
    Language, more info            : Clean effects
    Service kind                   : Complete Main
    
    Text #1
    ID                             : 33 (0x21)-CC1
    Menu ID                        : 1 (0x1)
    Format                         : EIA-608
    Muxing mode                    : A/53 / DTVCC Transport
    Muxing mode, more info         : Muxed in Video #1
    Duration                       : 3 min 32 s
    Bit rate mode                  : Constant
    Stream size                    : 0.00 Byte (0%)
    CaptionServiceName             : CC1
    
    Text #2
    ID                             : 33 (0x21)-1
    Menu ID                        : 1 (0x1)
    Format                         : EIA-708
    Muxing mode                    : A/53 / DTVCC Transport
    Muxing mode, more info         : Muxed in Video #1
    Duration                       : 3 min 32 s
    Bit rate mode                  : Constant
    Stream size                    : 0.00 Byte (0%)

    [​IMG]
    Code:
    General
    ID                             : 1 (0x1)
    Complete name                  : D:\03 Katy Perry ft. DJ AM & Travis Barker - I Kissed a Girl - MTV Video Music Awards 2008 1080i.ts
    Format                         : MPEG-TS
    File size                      : 145 MiB
    Duration                       : 1 min 3 s
    Overall bit rate mode          : Variable
    Overall bit rate               : 18.9 Mb/s
    Law rating                     : TV-PG
    
    Video
    ID                             : 33 (0x21)
    Menu ID                        : 1 (0x1)
    Format                         : MPEG Video
    Format version                 : Version 2
    Format profile                 : Main@High
    Format settings, BVOP          : Yes
    Format settings, Matrix        : Custom
    Format settings, GOP           : Variable
    Format settings, picture struc : Frame
    Codec ID                       : 2
    Duration                       : 1 min 3 s
    Bit rate mode                  : Variable
    Bit rate                       : 17.6 Mb/s
    Maximum bit rate               : 18.1 Mb/s
    Width                          : 1 920 pixels
    Height                         : 1 080 pixels
    Display aspect ratio           : 16:9
    Frame rate                     : 29.970 (30000/1001) FPS
    Standard                       : Component
    Color space                    : YUV
    Chroma subsampling             : 4:2:0
    Bit depth                      : 8 bits
    Scan type                      : Interlaced
    Scan order                     : Top Field First
    Compression mode               : Lossy
    Bits/(Pixel*Frame)             : 0.283
    Time code of first frame       : 00:08:57;04
    Time code source               : Group of pictures header
    GOP, Open/Closed               : Open
    Stream size                    : 134 MiB (93%)
    Color primaries                : BT.709
    Transfer characteristics       : BT.709
    Matrix coefficients            : BT.709
    
    Audio
    ID                             : 36 (0x24)
    Menu ID                        : 1 (0x1)
    Format                         : AC-3
    Format/Info                    : Audio Coding 3
    Format settings, Endianness    : Big
    Codec ID                       : 6
    Duration                       : 1 min 4 s
    Bit rate mode                  : Constant
    Bit rate                       : 384 kb/s
    Channel(s)                     : 2 channels
    Channel positions              : Front: L R
    Sampling rate                  : 48.0 kHz
    Frame rate                     : 31.250 FPS (1536 SPF)
    Bit depth                      : 16 bits
    Compression mode               : Lossy
    Delay relative to video        : 9 ms
    Stream size                    : 2.94 MiB (2%)
    Language                       : German
    Language, more info            : Clean effects
    Service kind                   : Complete Main
    
    Text #1
    ID                             : 33 (0x21)-CC1
    Menu ID                        : 1 (0x1)
    Format                         : EIA-608
    Muxing mode                    : A/53 / DTVCC Transport
    Muxing mode, more info         : Muxed in Video #1
    Duration                       : 1 min 3 s
    Bit rate mode                  : Constant
    Stream size                    : 0.00 Byte (0%)
    CaptionServiceName             : CC1
    
    Text #2
    ID                             : 33 (0x21)-1
    Menu ID                        : 1 (0x1)
    Format                         : EIA-708
    Muxing mode                    : A/53 / DTVCC Transport
    Muxing mode, more info         : Muxed in Video #1
    Duration                       : 1 min 3 s
    Bit rate mode                  : Constant
    Stream size                    : 0.00 Byte (0%)

    [​IMG]
    Code:
    General
    ID                             : 1 (0x1)
    Complete name                  : D:\04 Lil Wayne ft. Leonia Lewis & T-Pain - Medley - MTV Video Music Awards 2008 1080i.ts
    Format                         : MPEG-TS
    File size                      : 672 MiB
    Duration                       : 5 min 1 s
    Overall bit rate mode          : Variable
    Overall bit rate               : 18.7 Mb/s
    Law rating                     : TV-PG
    
    Video
    ID                             : 33 (0x21)
    Menu ID                        : 1 (0x1)
    Format                         : MPEG Video
    Format version                 : Version 2
    Format profile                 : Main@High
    Format settings, BVOP          : Yes
    Format settings, Matrix        : Custom
    Format settings, GOP           : Variable
    Format settings, picture struc : Frame
    Codec ID                       : 2
    Duration                       : 5 min 1 s
    Bit rate mode                  : Variable
    Bit rate                       : 17.4 Mb/s
    Maximum bit rate               : 18.1 Mb/s
    Width                          : 1 920 pixels
    Height                         : 1 080 pixels
    Display aspect ratio           : 16:9
    Frame rate                     : 29.970 (30000/1001) FPS
    Standard                       : Component
    Color space                    : YUV
    Chroma subsampling             : 4:2:0
    Bit depth                      : 8 bits
    Scan type                      : Interlaced
    Scan order                     : Top Field First
    Compression mode               : Lossy
    Bits/(Pixel*Frame)             : 0.279
    Time code of first frame       : 00:10:01;08
    Time code source               : Group of pictures header
    GOP, Open/Closed               : Open
    Stream size                    : 624 MiB (93%)
    Color primaries                : BT.709
    Transfer characteristics       : BT.709
    Matrix coefficients            : BT.709
    
    Audio
    ID                             : 36 (0x24)
    Menu ID                        : 1 (0x1)
    Format                         : AC-3
    Format/Info                    : Audio Coding 3
    Format settings, Endianness    : Big
    Codec ID                       : 6
    Duration                       : 5 min 1 s
    Bit rate mode                  : Constant
    Bit rate                       : 384 kb/s
    Channel(s)                     : 2 channels
    Channel positions              : Front: L R
    Sampling rate                  : 48.0 kHz
    Frame rate                     : 31.250 FPS (1536 SPF)
    Bit depth                      : 16 bits
    Compression mode               : Lossy
    Delay relative to video        : 12 ms
    Stream size                    : 13.8 MiB (2%)
    Language                       : German
    Language, more info            : Clean effects
    Service kind                   : Complete Main
    
    Text #1
    ID                             : 33 (0x21)-CC1
    Menu ID                        : 1 (0x1)
    Format                         : EIA-608
    Muxing mode                    : A/53 / DTVCC Transport
    Muxing mode, more info         : Muxed in Video #1
    Duration                       : 5 min 1 s
    Bit rate mode                  : Constant
    Stream size                    : 0.00 Byte (0%)
    CaptionServiceName             : CC1
    
    Text #2
    ID                             : 33 (0x21)-1
    Menu ID                        : 1 (0x1)
    Format                         : EIA-708
    Muxing mode                    : A/53 / DTVCC Transport
    Muxing mode, more info         : Muxed in Video #1
    Duration                       : 5 min 1 s
    Bit rate mode                  : Constant
    Stream size                    : 0.00 Byte (0%)

    [​IMG]
    Code:
    General
    ID                             : 1 (0x1)
    Complete name                  : D:\05 Paramore - Misery Business - MTV Video Music Awards 2008 1080i.ts
    Format                         : MPEG-TS
    File size                      : 487 MiB
    Duration                       : 3 min 38 s
    Overall bit rate mode          : Variable
    Overall bit rate               : 18.7 Mb/s
    Law rating                     : TV-PG
    
    Video
    ID                             : 33 (0x21)
    Menu ID                        : 1 (0x1)
    Format                         : MPEG Video
    Format version                 : Version 2
    Format profile                 : Main@High
    Format settings, BVOP          : Yes
    Format settings, Matrix        : Custom
    Format settings, GOP           : Variable
    Format settings, picture struc : Frame
    Codec ID                       : 2
    Duration                       : 3 min 38 s
    Bit rate mode                  : Variable
    Bit rate                       : 17.4 Mb/s
    Maximum bit rate               : 18.1 Mb/s
    Width                          : 1 920 pixels
    Height                         : 1 080 pixels
    Display aspect ratio           : 16:9
    Frame rate                     : 29.970 (30000/1001) FPS
    Standard                       : Component
    Color space                    : YUV
    Chroma subsampling             : 4:2:0
    Bit depth                      : 8 bits
    Scan type                      : Interlaced
    Scan order                     : Top Field First
    Compression mode               : Lossy
    Bits/(Pixel*Frame)             : 0.280
    Time code of first frame       : 00:15:02;26
    Time code source               : Group of pictures header
    GOP, Open/Closed               : Open
    Stream size                    : 452 MiB (93%)
    Color primaries                : BT.709
    Transfer characteristics       : BT.709
    Matrix coefficients            : BT.709
    
    Audio
    ID                             : 36 (0x24)
    Menu ID                        : 1 (0x1)
    Format                         : AC-3
    Format/Info                    : Audio Coding 3
    Format settings, Endianness    : Big
    Codec ID                       : 6
    Duration                       : 3 min 38 s
    Bit rate mode                  : Constant
    Bit rate                       : 384 kb/s
    Channel(s)                     : 2 channels
    Channel positions              : Front: L R
    Sampling rate                  : 48.0 kHz
    Frame rate                     : 31.250 FPS (1536 SPF)
    Bit depth                      : 16 bits
    Compression mode               : Lossy
    Delay relative to video        : 1 ms
    Stream size                    : 9.99 MiB (2%)
    Language                       : German
    Language, more info            : Clean effects
    Service kind                   : Complete Main
    
    Text #1
    ID                             : 33 (0x21)-CC1
    Menu ID                        : 1 (0x1)
    Format                         : EIA-608
    Muxing mode                    : A/53 / DTVCC Transport
    Muxing mode, more info         : Muxed in Video #1
    Duration                       : 3 min 38 s
    Bit rate mode                  : Constant
    Stream size                    : 0.00 Byte (0%)
    CaptionServiceName             : CC1
    
    Text #2
    ID                             : 33 (0x21)-1
    Menu ID                        : 1 (0x1)
    Format                         : EIA-708
    Muxing mode                    : A/53 / DTVCC Transport
    Muxing mode, more info         : Muxed in Video #1
    Duration                       : 3 min 38 s
    Bit rate mode                  : Constant
    Stream size                    : 0.00 Byte (0%)

    [​IMG]
    Code:
    General
    ID                             : 1 (0x1)
    Complete name                  : D:\06 The Ting Things ft. DJ AM & Travis Barker - Shut Up and Let Me Go - MTV Video Music Awards 2008 1080i.ts
    Format                         : MPEG-TS
    File size                      : 272 MiB
    Duration                       : 2 min 0 s
    Overall bit rate mode          : Variable
    Overall bit rate               : 18.9 Mb/s
    Law rating                     : TV-PG
    
    Video
    ID                             : 33 (0x21)
    Menu ID                        : 1 (0x1)
    Format                         : MPEG Video
    Format version                 : Version 2
    Format profile                 : Main@High
    Format settings, BVOP          : Yes
    Format settings, Matrix        : Custom
    Format settings, GOP           : Variable
    Format settings, picture struc : Frame
    Codec ID                       : 2
    Duration                       : 2 min 0 s
    Bit rate mode                  : Variable
    Bit rate                       : 17.5 Mb/s
    Maximum bit rate               : 18.1 Mb/s
    Width                          : 1 920 pixels
    Height                         : 1 080 pixels
    Display aspect ratio           : 16:9
    Frame rate                     : 29.970 (30000/1001) FPS
    Standard                       : Component
    Color space                    : YUV
    Chroma subsampling             : 4:2:0
    Bit depth                      : 8 bits
    Scan type                      : Interlaced
    Scan order                     : Top Field First
    Compression mode               : Lossy
    Bits/(Pixel*Frame)             : 0.282
    Time code of first frame       : 00:18:43;04
    Time code source               : Group of pictures header
    GOP, Open/Closed               : Open
    Stream size                    : 251 MiB (92%)
    Color primaries                : BT.709
    Transfer characteristics       : BT.709
    Matrix coefficients            : BT.709
    
    Audio
    ID                             : 36 (0x24)
    Menu ID                        : 1 (0x1)
    Format                         : AC-3
    Format/Info                    : Audio Coding 3
    Format settings, Endianness    : Big
    Codec ID                       : 6
    Duration                       : 2 min 0 s
    Bit rate mode                  : Constant
    Bit rate                       : 384 kb/s
    Channel(s)                     : 2 channels
    Channel positions              : Front: L R
    Sampling rate                  : 48.0 kHz
    Frame rate                     : 31.250 FPS (1536 SPF)
    Bit depth                      : 16 bits
    Compression mode               : Lossy
    Delay relative to video        : 9 ms
    Stream size                    : 5.51 MiB (2%)
    Language                       : German
    Language, more info            : Clean effects
    Service kind                   : Complete Main
    
    Text #1
    ID                             : 33 (0x21)-CC1
    Menu ID                        : 1 (0x1)
    Format                         : EIA-608
    Muxing mode                    : A/53 / DTVCC Transport
    Muxing mode, more info         : Muxed in Video #1
    Duration                       : 2 min 0 s
    Bit rate mode                  : Constant
    Stream size                    : 0.00 Byte (0%)
    CaptionServiceName             : CC1
    
    Text #2
    ID                             : 33 (0x21)-1
    Menu ID                        : 1 (0x1)
    Format                         : EIA-708
    Muxing mode                    : A/53 / DTVCC Transport
    Muxing mode, more info         : Muxed in Video #1
    Duration                       : 2 min 0 s
    Bit rate mode                  : Constant
    Stream size                    : 0.00 Byte (0%)

    [​IMG]
    Code:
    General
    ID                             : 1 (0x1)
    Complete name                  : D:\07 Pink - So What - MTV Video Music Awards 2008 1080i.ts
    Format                         : MPEG-TS
    File size                      : 503 MiB
    Duration                       : 3 min 44 s
    Overall bit rate mode          : Variable
    Overall bit rate               : 18.8 Mb/s
    Law rating                     : TV-PG
    
    Video
    ID                             : 33 (0x21)
    Menu ID                        : 1 (0x1)
    Format                         : MPEG Video
    Format version                 : Version 2
    Format profile                 : Main@High
    Format settings, BVOP          : Yes
    Format settings, Matrix        : Custom
    Format settings, GOP           : Variable
    Format settings, picture struc : Frame
    Codec ID                       : 2
    Duration                       : 3 min 44 s
    Bit rate mode                  : Variable
    Bit rate                       : 17.4 Mb/s
    Maximum bit rate               : 18.1 Mb/s
    Width                          : 1 920 pixels
    Height                         : 1 080 pixels
    Display aspect ratio           : 16:9
    Frame rate                     : 29.970 (30000/1001) FPS
    Standard                       : Component
    Color space                    : YUV
    Chroma subsampling             : 4:2:0
    Bit depth                      : 8 bits
    Scan type                      : Interlaced
    Scan order                     : Top Field First
    Compression mode               : Lossy
    Bits/(Pixel*Frame)             : 0.281
    Time code of first frame       : 00:20:44;24
    Time code source               : Group of pictures header
    GOP, Open/Closed               : Open
    Stream size                    : 467 MiB (93%)
    Color primaries                : BT.709
    Transfer characteristics       : BT.709
    Matrix coefficients            : BT.709
    
    Audio
    ID                             : 36 (0x24)
    Menu ID                        : 1 (0x1)
    Format                         : AC-3
    Format/Info                    : Audio Coding 3
    Format settings, Endianness    : Big
    Codec ID                       : 6
    Duration                       : 3 min 44 s
    Bit rate mode                  : Constant
    Bit rate                       : 384 kb/s
    Channel(s)                     : 2 channels
    Channel positions              : Front: L R
    Sampling rate                  : 48.0 kHz
    Frame rate                     : 31.250 FPS (1536 SPF)
    Bit depth                      : 16 bits
    Compression mode               : Lossy
    Delay relative to video        : 12 ms
    Stream size                    : 10.3 MiB (2%)
    Language                       : German
    Language, more info            : Clean effects
    Service kind                   : Complete Main
    
    Text #1
    ID                             : 33 (0x21)-CC1
    Menu ID                        : 1 (0x1)
    Format                         : EIA-608
    Muxing mode                    : A/53 / DTVCC Transport
    Muxing mode, more info         : Muxed in Video #1
    Duration                       : 3 min 44 s
    Bit rate mode                  : Constant
    Stream size                    : 0.00 Byte (0%)
    CaptionServiceName             : CC1
    
    Text #2
    ID                             : 33 (0x21)-1
    Menu ID                        : 1 (0x1)
    Format                         : EIA-708
    Muxing mode                    : A/53 / DTVCC Transport
    Muxing mode, more info         : Muxed in Video #1
    Duration                       : 3 min 44 s
    Bit rate mode                  : Constant
    Stream size                    : 0.00 Byte (0%)

    [​IMG]
    Code:
    General
    ID                             : 1 (0x1)
    Complete name                  : D:\08 Katy Perry ft. DJ AM & Travis Barker - Like a Virgin - MTV Video Music Awards 2008 1080i.ts
    Format                         : MPEG-TS
    File size                      : 234 MiB
    Duration                       : 1 min 43 s
    Overall bit rate mode          : Variable
    Overall bit rate               : 18.9 Mb/s
    Law rating                     : TV-PG
    
    Video
    ID                             : 33 (0x21)
    Menu ID                        : 1 (0x1)
    Format                         : MPEG Video
    Format version                 : Version 2
    Format profile                 : Main@High
    Format settings, BVOP          : Yes
    Format settings, Matrix        : Custom
    Format settings, GOP           : Variable
    Format settings, picture struc : Frame
    Codec ID                       : 2
    Duration                       : 1 min 43 s
    Bit rate mode                  : Variable
    Bit rate                       : 17.6 Mb/s
    Maximum bit rate               : 18.1 Mb/s
    Width                          : 1 920 pixels
    Height                         : 1 080 pixels
    Display aspect ratio           : 16:9
    Frame rate                     : 29.970 (30000/1001) FPS
    Standard                       : Component
    Color space                    : YUV
    Chroma subsampling             : 4:2:0
    Bit depth                      : 8 bits
    Scan type                      : Interlaced
    Scan order                     : Top Field First
    Compression mode               : Lossy
    Bits/(Pixel*Frame)             : 0.283
    Time code of first frame       : 00:24:29;24
    Time code source               : Group of pictures header
    GOP, Open/Closed               : Open
    Stream size                    : 218 MiB (93%)
    Color primaries                : BT.709
    Transfer characteristics       : BT.709
    Matrix coefficients            : BT.709
    
    Audio
    ID                             : 36 (0x24)
    Menu ID                        : 1 (0x1)
    Format                         : AC-3
    Format/Info                    : Audio Coding 3
    Format settings, Endianness    : Big
    Codec ID                       : 6
    Duration                       : 1 min 43 s
    Bit rate mode                  : Constant
    Bit rate                       : 384 kb/s
    Channel(s)                     : 2 channels
    Channel positions              : Front: L R
    Sampling rate                  : 48.0 kHz
    Frame rate                     : 31.250 FPS (1536 SPF)
    Bit depth                      : 16 bits
    Compression mode               : Lossy
    Delay relative to video        : 7 ms
    Stream size                    : 4.76 MiB (2%)
    Language                       : German
    Language, more info            : Clean effects
    Service kind                   : Complete Main
    
    Text #1
    ID                             : 33 (0x21)-CC1
    Menu ID                        : 1 (0x1)
    Format                         : EIA-608
    Muxing mode                    : A/53 / DTVCC Transport
    Muxing mode, more info         : Muxed in Video #1
    Duration                       : 1 min 43 s
    Bit rate mode                  : Constant
    Stream size                    : 0.00 Byte (0%)
    CaptionServiceName             : CC1
    
    Text #2
    ID                             : 33 (0x21)-1
    Menu ID                        : 1 (0x1)
    Format                         : EIA-708
    Muxing mode                    : A/53 / DTVCC Transport
    Muxing mode, more info         : Muxed in Video #1
    Duration                       : 1 min 43 s
    Bit rate mode                  : Constant
    Stream size                    : 0.00 Byte (0%)

    [​IMG]
    Code:
    General
    ID                             : 1 (0x1)
    Complete name                  : D:\09 LL Cool J ft. DJ AM & Travis Barker - Going Back to Cali - MTV Video Music Awards 2008 1080i.ts
    Format                         : MPEG-TS
    File size                      : 124 MiB
    Duration                       : 55 s 380 ms
    Overall bit rate mode          : Variable
    Overall bit rate               : 18.8 Mb/s
    Law rating                     : TV-PG
    
    Video
    ID                             : 33 (0x21)
    Menu ID                        : 1 (0x1)
    Format                         : MPEG Video
    Format version                 : Version 2
    Format profile                 : Main@High
    Format settings, BVOP          : Yes
    Format settings, Matrix        : Custom
    Format settings, GOP           : Variable
    Format settings, picture struc : Frame
    Codec ID                       : 2
    Duration                       : 55 s 155 ms
    Bit rate mode                  : Variable
    Bit rate                       : 17.5 Mb/s
    Maximum bit rate               : 18.1 Mb/s
    Width                          : 1 920 pixels
    Height                         : 1 080 pixels
    Display aspect ratio           : 16:9
    Frame rate                     : 29.970 (30000/1001) FPS
    Standard                       : Component
    Color space                    : YUV
    Chroma subsampling             : 4:2:0
    Bit depth                      : 8 bits
    Scan type                      : Interlaced
    Scan order                     : Top Field First
    Compression mode               : Lossy
    Bits/(Pixel*Frame)             : 0.281
    Time code of first frame       : 00:26:13;12
    Time code source               : Group of pictures header
    Stream size                    : 115 MiB (92%)
    Color primaries                : BT.709
    Transfer characteristics       : BT.709
    Matrix coefficients            : BT.709
    
    Audio
    ID                             : 36 (0x24)
    Menu ID                        : 1 (0x1)
    Format                         : AC-3
    Format/Info                    : Audio Coding 3
    Format settings, Endianness    : Big
    Codec ID                       : 6
    Duration                       : 55 s 360 ms
    Bit rate mode                  : Constant
    Bit rate                       : 384 kb/s
    Channel(s)                     : 2 channels
    Channel positions              : Front: L R
    Sampling rate                  : 48.0 kHz
    Frame rate                     : 31.250 FPS (1536 SPF)
    Bit depth                      : 16 bits
    Compression mode               : Lossy
    Delay relative to video        : 32 ms
    Stream size                    : 2.53 MiB (2%)
    Language                       : German
    Language, more info            : Clean effects
    Service kind                   : Complete Main
    
    Text #1
    ID                             : 33 (0x21)-CC1
    Menu ID                        : 1 (0x1)
    Format                         : EIA-608
    Muxing mode                    : A/53 / DTVCC Transport
    Muxing mode, more info         : Muxed in Video #1
    Duration                       : 55 s 155 ms
    Bit rate mode                  : Constant
    Stream size                    : 0.00 Byte (0%)
    CaptionServiceName             : CC1
    
    Text #2
    ID                             : 33 (0x21)-1
    Menu ID                        : 1 (0x1)
    Format                         : EIA-708
    Muxing mode                    : A/53 / DTVCC Transport
    Muxing mode, more info         : Muxed in Video #1
    Duration                       : 55 s 155 ms
    Bit rate mode                  : Constant
    Stream size                    : 0.00 Byte (0%)

    [​IMG]
    Code:
    General
    ID                             : 1 (0x1)
    Complete name                  : D:\10 Kid Rock ft. Lil Wayne - All Summer Long - MTV Video Music Awards 2008 1080i.ts
    Format                         : MPEG-TS
    File size                      : 669 MiB
    Duration                       : 4 min 58 s
    Overall bit rate mode          : Variable
    Overall bit rate               : 18.8 Mb/s
    Law rating                     : TV-PG
    
    Video
    ID                             : 33 (0x21)
    Menu ID                        : 1 (0x1)
    Format                         : MPEG Video
    Format version                 : Version 2
    Format profile                 : Main@High
    Format settings, BVOP          : Yes
    Format settings, Matrix        : Custom
    Format settings, GOP           : Variable
    Format settings, picture struc : Frame
    Codec ID                       : 2
    Duration                       : 4 min 57 s
    Bit rate mode                  : Variable
    Bit rate                       : 17.5 Mb/s
    Maximum bit rate               : 18.1 Mb/s
    Width                          : 1 920 pixels
    Height                         : 1 080 pixels
    Display aspect ratio           : 16:9
    Frame rate                     : 29.970 (30000/1001) FPS
    Standard                       : Component
    Color space                    : YUV
    Chroma subsampling             : 4:2:0
    Bit depth                      : 8 bits
    Scan type                      : Interlaced
    Scan order                     : Top Field First
    Compression mode               : Lossy
    Bits/(Pixel*Frame)             : 0.282
    Time code of first frame       : 00:27:09;01
    Time code source               : Group of pictures header
    GOP, Open/Closed               : Open
    Stream size                    : 621 MiB (93%)
    Color primaries                : BT.709
    Transfer characteristics       : BT.709
    Matrix coefficients            : BT.709
    
    Audio
    ID                             : 36 (0x24)
    Menu ID                        : 1 (0x1)
    Format                         : AC-3
    Format/Info                    : Audio Coding 3
    Format settings, Endianness    : Big
    Codec ID                       : 6
    Duration                       : 4 min 58 s
    Bit rate mode                  : Constant
    Bit rate                       : 384 kb/s
    Channel(s)                     : 2 channels
    Channel positions              : Front: L R
    Sampling rate                  : 48.0 kHz
    Frame rate                     : 31.250 FPS (1536 SPF)
    Bit depth                      : 16 bits
    Compression mode               : Lossy
    Stream size                    : 13.7 MiB (2%)
    Language                       : German
    Language, more info            : Clean effects
    Service kind                   : Complete Main
    
    Text #1
    ID                             : 33 (0x21)-CC1
    Menu ID                        : 1 (0x1)
    Format                         : EIA-608
    Muxing mode                    : A/53 / DTVCC Transport
    Muxing mode, more info         : Muxed in Video #1
    Duration                       : 4 min 57 s
    Bit rate mode                  : Constant
    Stream size                    : 0.00 Byte (0%)
    CaptionServiceName             : CC1
    
    Text #2
    ID                             : 33 (0x21)-1
    Menu ID                        : 1 (0x1)
    Format                         : EIA-708
    Muxing mode                    : A/53 / DTVCC Transport
    Muxing mode, more info         : Muxed in Video #1
    Duration                       : 4 min 57 s
    Bit rate mode                  : Constant
    Stream size                    : 0.00 Byte (0%)

    [​IMG]
    Code:
    General
    ID                             : 1 (0x1)
    Complete name                  : D:\11 Christina Aguilera - Genie 2.0 & Keeps Gettin' Better - MTV Video Music Awards 2008 1080i.ts
    Format                         : MPEG-TS
    File size                      : 614 MiB
    Duration                       : 4 min 40 s
    Overall bit rate mode          : Variable
    Overall bit rate               : 18.3 Mb/s
    Law rating                     : TV-PG
    
    Video
    ID                             : 33 (0x21)
    Menu ID                        : 1 (0x1)
    Format                         : MPEG Video
    Format version                 : Version 2
    Format profile                 : Main@High
    Format settings, BVOP          : Yes
    Format settings, Matrix        : Custom
    Format settings, GOP           : Variable
    Format settings, picture struc : Frame
    Codec ID                       : 2
    Duration                       : 4 min 40 s
    Bit rate mode                  : Variable
    Bit rate                       : 17.0 Mb/s
    Maximum bit rate               : 18.1 Mb/s
    Width                          : 1 920 pixels
    Height                         : 1 080 pixels
    Display aspect ratio           : 16:9
    Frame rate                     : 29.970 (30000/1001) FPS
    Standard                       : Component
    Color space                    : YUV
    Chroma subsampling             : 4:2:0
    Bit depth                      : 8 bits
    Scan type                      : Interlaced
    Scan order                     : Top Field First
    Compression mode               : Lossy
    Bits/(Pixel*Frame)             : 0.274
    Time code of first frame       : 00:32:08;13
    Time code source               : Group of pictures header
    GOP, Open/Closed               : Open
    Stream size                    : 570 MiB (93%)
    Color primaries                : BT.709
    Transfer characteristics       : BT.709
    Matrix coefficients            : BT.709
    
    Audio
    ID                             : 36 (0x24)
    Menu ID                        : 1 (0x1)
    Format                         : AC-3
    Format/Info                    : Audio Coding 3
    Format settings, Endianness    : Big
    Codec ID                       : 6
    Duration                       : 4 min 40 s
    Bit rate mode                  : Constant
    Bit rate                       : 384 kb/s
    Channel(s)                     : 2 channels
    Channel positions              : Front: L R
    Sampling rate                  : 48.0 kHz
    Frame rate                     : 31.250 FPS (1536 SPF)
    Bit depth                      : 16 bits
    Compression mode               : Lossy
    Delay relative to video        : 10 ms
    Stream size                    : 12.9 MiB (2%)
    Language                       : German
    Language, more info            : Clean effects
    Service kind                   : Complete Main
    
    Text #1
    ID                             : 33 (0x21)-CC1
    Menu ID                        : 1 (0x1)
    Format                         : EIA-608
    Muxing mode                    : A/53 / DTVCC Transport
    Muxing mode, more info         : Muxed in Video #1
    Duration                       : 4 min 40 s
    Bit rate mode                  : Constant
    Stream size                    : 0.00 Byte (0%)
    CaptionServiceName             : CC1
    
    Text #2
    ID                             : 33 (0x21)-1
    Menu ID                        : 1 (0x1)
    Format                         : EIA-708
    Muxing mode                    : A/53 / DTVCC Transport
    Muxing mode, more info         : Muxed in Video #1
    Duration                       : 4 min 40 s
    Bit rate mode                  : Constant
    Stream size                    : 0.00 Byte (0%)

    [​IMG]
    Code:
    General
    ID                             : 1 (0x1)
    Complete name                  : D:\12 Lupe Flasco ft. Matthew Santons, DJ AM & Travis Barker - Superstar - MTV Video Music Awards 2008 1080i.ts
    Format                         : MPEG-TS
    File size                      : 351 MiB
    Duration                       : 2 min 35 s
    Overall bit rate mode          : Variable
    Overall bit rate               : 18.9 Mb/s
    Law rating                     : TV-PG
    
    Video
    ID                             : 33 (0x21)
    Menu ID                        : 1 (0x1)
    Format                         : MPEG Video
    Format version                 : Version 2
    Format profile                 : Main@High
    Format settings, BVOP          : Yes
    Format settings, Matrix        : Custom
    Format settings, GOP           : Variable
    Format settings, picture struc : Frame
    Codec ID                       : 2
    Duration                       : 2 min 35 s
    Bit rate mode                  : Variable
    Bit rate                       : 17.6 Mb/s
    Maximum bit rate               : 18.1 Mb/s
    Width                          : 1 920 pixels
    Height                         : 1 080 pixels
    Display aspect ratio           : 16:9
    Frame rate                     : 29.970 (30000/1001) FPS
    Standard                       : Component
    Color space                    : YUV
    Chroma subsampling             : 4:2:0
    Bit depth                      : 8 bits
    Scan type                      : Interlaced
    Scan order                     : Bottom Field First
    Compression mode               : Lossy
    Bits/(Pixel*Frame)             : 0.283
    Time code of first frame       : 00:36:50;25
    Time code source               : Group of pictures header
    GOP, Open/Closed               : Open
    Stream size                    : 326 MiB (93%)
    Color primaries                : BT.709
    Transfer characteristics       : BT.709
    Matrix coefficients            : BT.709
    
    Audio
    ID                             : 36 (0x24)
    Menu ID                        : 1 (0x1)
    Format                         : AC-3
    Format/Info                    : Audio Coding 3
    Format settings, Endianness    : Big
    Codec ID                       : 6
    Duration                       : 2 min 35 s
    Bit rate mode                  : Constant
    Bit rate                       : 384 kb/s
    Channel(s)                     : 2 channels
    Channel positions              : Front: L R
    Sampling rate                  : 48.0 kHz
    Frame rate                     : 31.250 FPS (1536 SPF)
    Bit depth                      : 16 bits
    Compression mode               : Lossy
    Delay relative to video        : 1 ms
    Stream size                    : 7.13 MiB (2%)
    Language                       : German
    Language, more info            : Clean effects
    Service kind                   : Complete Main
    
    Text #1
    ID                             : 33 (0x21)-CC1
    Menu ID                        : 1 (0x1)
    Format                         : EIA-608
    Muxing mode                    : A/53 / DTVCC Transport
    Muxing mode, more info         : Muxed in Video #1
    Duration                       : 2 min 35 s
    Bit rate mode                  : Constant
    Stream size                    : 0.00 Byte (0%)
    CaptionServiceName             : CC1
    
    Text #2
    ID                             : 33 (0x21)-1
    Menu ID                        : 1 (0x1)
    Format                         : EIA-708
    Muxing mode                    : A/53 / DTVCC Transport
    Muxing mode, more info         : Muxed in Video #1
    Duration                       : 2 min 35 s
    Bit rate mode                  : Constant
    Stream size                    : 0.00 Byte (0%)

    [​IMG]
    Code:
    General
    ID                             : 1 (0x1)
    Complete name                  : D:\13 T.I. ft. Rihanna - Whatever You Like & Live Your Life - MTV Video Music Awards 2008 1080i.ts
    Format                         : MPEG-TS
    File size                      : 718 MiB
    Duration                       : 5 min 19 s
    Overall bit rate mode          : Variable
    Overall bit rate               : 18.8 Mb/s
    Law rating                     : TV-PG
    
    Video
    ID                             : 33 (0x21)
    Menu ID                        : 1 (0x1)
    Format                         : MPEG Video
    Format version                 : Version 2
    Format profile                 : Main@High
    Format settings, BVOP          : Yes
    Format settings, Matrix        : Custom
    Format settings, GOP           : Variable
    Format settings, picture struc : Frame
    Codec ID                       : 2
    Duration                       : 5 min 19 s
    Bit rate mode                  : Variable
    Bit rate                       : 17.5 Mb/s
    Maximum bit rate               : 18.1 Mb/s
    Width                          : 1 920 pixels
    Height                         : 1 080 pixels
    Display aspect ratio           : 16:9
    Frame rate                     : 29.970 (30000/1001) FPS
    Standard                       : Component
    Color space                    : YUV
    Chroma subsampling             : 4:2:0
    Bit depth                      : 8 bits
    Scan type                      : Interlaced
    Scan order                     : Bottom Field First
    Compression mode               : Lossy
    Bits/(Pixel*Frame)             : 0.282
    Time code of first frame       : 00:39:28;07
    Time code source               : Group of pictures header
    GOP, Open/Closed               : Open
    Stream size                    : 667 MiB (93%)
    Color primaries                : BT.709
    Transfer characteristics       : BT.709
    Matrix coefficients            : BT.709
    
    Audio
    ID                             : 36 (0x24)
    Menu ID                        : 1 (0x1)
    Format                         : AC-3
    Format/Info                    : Audio Coding 3
    Format settings, Endianness    : Big
    Codec ID                       : 6
    Duration                       : 5 min 19 s
    Bit rate mode                  : Constant
    Bit rate                       : 384 kb/s
    Channel(s)                     : 2 channels
    Channel positions              : Front: L R
    Sampling rate                  : 48.0 kHz
    Frame rate                     : 31.250 FPS (1536 SPF)
    Bit depth                      : 16 bits
    Compression mode               : Lossy
    Delay relative to video        : 19 ms
    Stream size                    : 14.6 MiB (2%)
    Language                       : German
    Language, more info            : Clean effects
    Service kind                   : Complete Main
    
    Text #1
    ID                             : 33 (0x21)-CC1
    Menu ID                        : 1 (0x1)
    Format                         : EIA-608
    Muxing mode                    : A/53 / DTVCC Transport
    Muxing mode, more info         : Muxed in Video #1
    Duration                       : 5 min 19 s
    Bit rate mode                  : Constant
    Stream size                    : 0.00 Byte (0%)
    CaptionServiceName             : CC1
    
    Text #2
    ID                             : 33 (0x21)-1
    Menu ID                        : 1 (0x1)
    Format                         : EIA-708
    Muxing mode                    : A/53 / DTVCC Transport
    Muxing mode, more info         : Muxed in Video #1
    Duration                       : 5 min 19 s
    Bit rate mode                  : Constant
    Stream size                    : 0.00 Byte (0%)

    [​IMG]
    Code:
    General
    ID                             : 1 (0x1)
    Complete name                  : D:\14 Kanye West - Love Lockdown - MTV Video Music Awards 2008 1080i.ts
    Format                         : MPEG-TS
    File size                      : 476 MiB
    Duration                       : 3 min 51 s
    Overall bit rate mode          : Variable
    Overall bit rate               : 17.2 Mb/s
    Law rating                     : TV-PG
    
    Video
    ID                             : 33 (0x21)
    Menu ID                        : 1 (0x1)
    Format                         : MPEG Video
    Format version                 : Version 2
    Format profile                 : Main@High
    Format settings, BVOP          : Yes
    Format settings, Matrix        : Custom
    Format settings, GOP           : M=2, N=14
    Format settings, picture struc : Frame
    Codec ID                       : 2
    Duration                       : 3 min 51 s
    Bit rate mode                  : Variable
    Bit rate                       : 16.0 Mb/s
    Maximum bit rate               : 18.1 Mb/s
    Width                          : 1 920 pixels
    Height                         : 1 080 pixels
    Display aspect ratio           : 16:9
    Frame rate                     : 29.970 (30000/1001) FPS
    Standard                       : Component
    Color space                    : YUV
    Chroma subsampling             : 4:2:0
    Bit depth                      : 8 bits
    Scan type                      : Interlaced
    Scan order                     : Bottom Field First
    Compression mode               : Lossy
    Bits/(Pixel*Frame)             : 0.258
    Time code of first frame       : 00:44:48;05
    Time code source               : Group of pictures header
    GOP, Open/Closed               : Open
    Stream size                    : 441 MiB (93%)
    Color primaries                : BT.709
    Transfer characteristics       : BT.709
    Matrix coefficients            : BT.709
    
    Audio
    ID                             : 36 (0x24)
    Menu ID                        : 1 (0x1)
    Format                         : AC-3
    Format/Info                    : Audio Coding 3
    Format settings, Endianness    : Big
    Codec ID                       : 6
    Duration                       : 3 min 51 s
    Bit rate mode                  : Constant
    Bit rate                       : 384 kb/s
    Channel(s)                     : 2 channels
    Channel positions              : Front: L R
    Sampling rate                  : 48.0 kHz
    Frame rate                     : 31.250 FPS (1536 SPF)
    Bit depth                      : 16 bits
    Compression mode               : Lossy
    Delay relative to video        : 23 ms
    Stream size                    : 10.6 MiB (2%)
    Language                       : German
    Language, more info            : Clean effects
    Service kind                   : Complete Main
    
    Text #1
    ID                             : 33 (0x21)-CC1
    Menu ID                        : 1 (0x1)
    Format                         : EIA-608
    Muxing mode                    : A/53 / DTVCC Transport
    Muxing mode, more info         : Muxed in Video #1
    Duration                       : 3 min 51 s
    Bit rate mode                  : Constant
    Stream size                    : 0.00 Byte (0%)
    CaptionServiceName             : CC1
    
    Text #2
    ID                             : 33 (0x21)-1
    Menu ID                        : 1 (0x1)
    Format                         : EIA-708
    Muxing mode                    : A/53 / DTVCC Transport
    Muxing mode, more info         : Muxed in Video #1
    Duration                       : 3 min 51 s
    Bit rate mode                  : Constant
    Stream size                    : 0.00 Byte (0%)

    ***Hidden content cannot be quoted.***

    Credits to the original capper. Cutted by me. Requested by @Thassyo :D[/QUOTE]
    t
     
  3. isham023

    isham023 Well-Known Member

    Joined:
    Nov 30, 2013
    Messages:
    2,526
    Likes Received:
    68
  4. warrentw

    warrentw Member

    Joined:
    Mar 25, 2018
    Messages:
    256
    Likes Received:
    13
  5. uminomiyako

    uminomiyako Well-Known Member

    Joined:
    May 28, 2016
    Messages:
    2,441
    Likes Received:
    93
  6. Danny82

    Danny82 Well-Known Member

    Joined:
    May 28, 2016
    Messages:
    2,358
    Likes Received:
    654
    WOW! :greedy:
    Thank you so much!:victory::love:
     
  7. luismolinanyc

    luismolinanyc Active Member

    Joined:
    May 17, 2016
    Messages:
    927
    Likes Received:
    34
  8. hanshermann

    hanshermann Well-Known Member Uploader

    Joined:
    Aug 24, 2016
    Messages:
    6,483
    Likes Received:
    10,001
    wahts taht
     
  9. apple66

    apple66 Member

    Joined:
    May 1, 2015
    Messages:
    257
    Likes Received:
    10
    thanks
     
  10. bjellerud

    bjellerud Member

    Joined:
    Jan 7, 2018
    Messages:
    200
    Likes Received:
    17
    thanks
     
  11. redfive

    redfive Member

    Joined:
    Mar 11, 2016
    Messages:
    139
    Likes Received:
    3
    Thank you!
     
  12. JUNINHOSZ

    JUNINHOSZ Well-Known Member

    Joined:
    May 23, 2014
    Messages:
    1,780
    Likes Received:
    55
    thanks!
     
  13. tapions

    tapions Well-Known Member

    Joined:
    Aug 30, 2016
    Messages:
    1,013
    Likes Received:
    89
    gracias
     
  14. stuart_micro

    stuart_micro Member

    Joined:
    Oct 19, 2016
    Messages:
    289
    Likes Received:
    9
    thank you
     
  15. sideshow_bob

    sideshow_bob Well-Known Member

    Joined:
    Dec 20, 2013
    Messages:
    3,209
    Likes Received:
    229
  16. zhxliveing

    zhxliveing Well-Known Member

    Joined:
    Sep 7, 2016
    Messages:
    1,350
    Likes Received:
    94
    tha
    thanks
     
  17. mcslimshady

    mcslimshady Well-Known Member

    Joined:
    Jun 20, 2016
    Messages:
    1,825
    Likes Received:
    46
    thanks man
     
  18. mcslimshady

    mcslimshady Well-Known Member

    Joined:
    Jun 20, 2016
    Messages:
    1,825
    Likes Received:
    46
    thanks man
     
  19. miguelmr87

    miguelmr87 Well-Known Member

    Joined:
    Dec 20, 2013
    Messages:
    1,216
    Likes Received:
    281
    thank yay
     
  20. mizdot

    mizdot Well-Known Member

    Joined:
    Nov 13, 2014
    Messages:
    2,721
    Likes Received:
    117
    tnx man