HDTV MTV Video Music Award 2010 - 10 performances - 1080i

Discussion in 'HD Live Performances' started by KaiKawaii, Jan 26, 2018.

  1. KaiKawaii

    KaiKawaii Well-Known Member Uploader

    Joined:
    Jun 1, 2017
    Messages:
    581
    Likes Received:
    1,020
    [​IMG]
    Code:
    General
    ID                             : 1 (0x1)
    Complete name                  : D:\01 Eminem ft. Rihanna - Not Afraid & Love the Way You Lie - MTV Video Music Awards 2010 1080i.ts
    Format                         : MPEG-TS
    File size                      : 665 MiB
    Duration                       : 4 min 30 s
    Overall bit rate mode          : Variable
    Overall bit rate               : 20.6 Mb/s
    
    Video
    ID                             : 308 (0x134)
    Menu ID                        : 1 (0x1)
    Format                         : MPEG Video
    Format version                 : Version 2
    Format profile                 : 4:2:2@High
    Format settings, BVOP          : Yes
    Format settings, Matrix        : Custom
    Format settings, GOP           : M=3, N=15
    Format settings, picture struc : Frame
    Codec ID                       : 2
    Duration                       : 4 min 30 s
    Bit rate mode                  : Variable
    Bit rate                       : 19.2 Mb/s
    Maximum bit rate               : 19.7 Mb/s
    Width                          : 1 920 pixels
    Height                         : 1 080 pixels
    Display aspect ratio           : 16:9
    Frame rate                     : 29.970 (30000/1001) FPS
    Color space                    : YUV
    Chroma subsampling             : 4:2:2
    Bit depth                      : 8 bits
    Scan type                      : Interlaced
    Scan order                     : Top Field First
    Compression mode               : Lossy
    Bits/(Pixel*Frame)             : 0.309
    Time code of first frame       : 00:00:00;13
    Time code source               : Group of pictures header
    GOP, Open/Closed               : Open
    Stream size                    : 619 MiB (93%)
    
    Audio
    ID                             : 256 (0x100)
    Menu ID                        : 1 (0x1)
    Format                         : MPEG Audio
    Format version                 : Version 1
    Format profile                 : Layer 2
    Codec ID                       : 3
    Duration                       : 4 min 30 s
    Bit rate mode                  : Constant
    Bit rate                       : 384 kb/s
    Channel(s)                     : 2 channels
    Sampling rate                  : 48.0 kHz
    Compression mode               : Lossy
    Delay relative to video        : 17 ms
    Stream size                    : 12.4 MiB (2%)
    Language                       : English

    [​IMG]
    Code:
    General
    ID                             : 1 (0x1)
    Complete name                  : D:\02 Justin Bieber - U Smile & Baby & Somebody to Love - MTV Video Music Awards 2010 1080i.ts
    Format                         : MPEG-TS
    File size                      : 740 MiB
    Duration                       : 5 min 0 s
    Overall bit rate mode          : Variable
    Overall bit rate               : 20.6 Mb/s
    
    Video
    ID                             : 308 (0x134)
    Menu ID                        : 1 (0x1)
    Format                         : MPEG Video
    Format version                 : Version 2
    Format profile                 : 4:2:2@High
    Format settings, BVOP          : Yes
    Format settings, Matrix        : Custom
    Format settings, GOP           : M=3, N=15
    Format settings, picture struc : Frame
    Codec ID                       : 2
    Duration                       : 5 min 0 s
    Bit rate mode                  : Variable
    Bit rate                       : 19.2 Mb/s
    Maximum bit rate               : 19.7 Mb/s
    Width                          : 1 920 pixels
    Height                         : 1 080 pixels
    Display aspect ratio           : 16:9
    Frame rate                     : 29.970 (30000/1001) FPS
    Color space                    : YUV
    Chroma subsampling             : 4:2:2
    Bit depth                      : 8 bits
    Scan type                      : Interlaced
    Scan order                     : Top Field First
    Compression mode               : Lossy
    Bits/(Pixel*Frame)             : 0.309
    Time code of first frame       : 00:25:37;23
    Time code source               : Group of pictures header
    GOP, Open/Closed               : Open
    Stream size                    : 689 MiB (93%)
    
    Audio
    ID                             : 256 (0x100)
    Menu ID                        : 1 (0x1)
    Format                         : MPEG Audio
    Format version                 : Version 1
    Format profile                 : Layer 2
    Codec ID                       : 3
    Duration                       : 5 min 1 s
    Bit rate mode                  : Constant
    Bit rate                       : 384 kb/s
    Channel(s)                     : 2 channels
    Sampling rate                  : 48.0 kHz
    Compression mode               : Lossy
    Delay relative to video        : 6 ms
    Stream size                    : 13.8 MiB (2%)
    Language                       : English

    [​IMG]
    Code:
    General
    ID                             : 1 (0x1)
    Complete name                  : D:\03 Usher - DJ Got Us Fallin' in Love & OMG - MTV Video Music Awards 2010 1080i.ts
    Format                         : MPEG-TS
    File size                      : 665 MiB
    Duration                       : 4 min 30 s
    Overall bit rate mode          : Variable
    Overall bit rate               : 20.6 Mb/s
    
    Video
    ID                             : 308 (0x134)
    Menu ID                        : 1 (0x1)
    Format                         : MPEG Video
    Format version                 : Version 2
    Format profile                 : 4:2:2@High
    Format settings, BVOP          : Yes
    Format settings, Matrix        : Custom
    Format settings, GOP           : M=3, N=15
    Format settings, picture struc : Frame
    Codec ID                       : 2
    Duration                       : 4 min 30 s
    Bit rate mode                  : Variable
    Bit rate                       : 19.2 Mb/s
    Maximum bit rate               : 19.7 Mb/s
    Width                          : 1 920 pixels
    Height                         : 1 080 pixels
    Display aspect ratio           : 16:9
    Frame rate                     : 29.970 (30000/1001) FPS
    Color space                    : YUV
    Chroma subsampling             : 4:2:2
    Bit depth                      : 8 bits
    Scan type                      : Interlaced
    Scan order                     : Top Field First
    Compression mode               : Lossy
    Bits/(Pixel*Frame)             : 0.309
    Time code of first frame       : 00:36:29;13
    Time code source               : Group of pictures header
    GOP, Open/Closed               : Open
    Stream size                    : 619 MiB (93%)
    
    Audio
    ID                             : 256 (0x100)
    Menu ID                        : 1 (0x1)
    Format                         : MPEG Audio
    Format version                 : Version 1
    Format profile                 : Layer 2
    Codec ID                       : 3
    Duration                       : 4 min 31 s
    Bit rate mode                  : Constant
    Bit rate                       : 384 kb/s
    Channel(s)                     : 2 channels
    Sampling rate                  : 48.0 kHz
    Compression mode               : Lossy
    Delay relative to video        : 7 ms
    Stream size                    : 12.4 MiB (2%)
    Language                       : English

    [​IMG]
    Code:
    General
    ID                             : 1 (0x1)
    Complete name                  : D:\04 Florence + the Machine - Dog Days Are Over - MTV Video Music Awards 2010 1080i.ts
    Format                         : MPEG-TS
    File size                      : 617 MiB
    Duration                       : 4 min 11 s
    Overall bit rate mode          : Variable
    Overall bit rate               : 20.6 Mb/s
    
    Video
    ID                             : 308 (0x134)
    Menu ID                        : 1 (0x1)
    Format                         : MPEG Video
    Format version                 : Version 2
    Format profile                 : 4:2:2@High
    Format settings, BVOP          : Yes
    Format settings, Matrix        : Custom
    Format settings, GOP           : M=3, N=15
    Format settings, picture struc : Frame
    Codec ID                       : 2
    Duration                       : 4 min 11 s
    Bit rate mode                  : Variable
    Bit rate                       : 19.2 Mb/s
    Maximum bit rate               : 19.7 Mb/s
    Width                          : 1 920 pixels
    Height                         : 1 080 pixels
    Display aspect ratio           : 16:9
    Frame rate                     : 29.970 (30000/1001) FPS
    Color space                    : YUV
    Chroma subsampling             : 4:2:2
    Bit depth                      : 8 bits
    Scan type                      : Interlaced
    Scan order                     : Top Field First
    Compression mode               : Lossy
    Bits/(Pixel*Frame)             : 0.309
    Time code of first frame       : 00:50:44;15
    Time code source               : Group of pictures header
    GOP, Open/Closed               : Open
    Stream size                    : 575 MiB (93%)
    
    Audio
    ID                             : 256 (0x100)
    Menu ID                        : 1 (0x1)
    Format                         : MPEG Audio
    Format version                 : Version 1
    Format profile                 : Layer 2
    Codec ID                       : 3
    Duration                       : 4 min 11 s
    Bit rate mode                  : Constant
    Bit rate                       : 384 kb/s
    Channel(s)                     : 2 channels
    Sampling rate                  : 48.0 kHz
    Compression mode               : Lossy
    Delay relative to video        : 7 ms
    Stream size                    : 11.5 MiB (2%)
    Language                       : English

    [​IMG]
    Code:
    General
    ID                             : 1 (0x1)
    Complete name                  : D:\05 Taylor Swift - Innocent  - MTV Video Music Awards 2010 1080i.ts
    Format                         : MPEG-TS
    File size                      : 893 MiB
    Duration                       : 6 min 3 s
    Overall bit rate mode          : Variable
    Overall bit rate               : 20.6 Mb/s
    
    Video
    ID                             : 308 (0x134)
    Menu ID                        : 1 (0x1)
    Format                         : MPEG Video
    Format version                 : Version 2
    Format profile                 : 4:2:2@High
    Format settings, BVOP          : Yes
    Format settings, Matrix        : Custom
    Format settings, GOP           : M=3, N=15
    Format settings, picture struc : Frame
    Codec ID                       : 2
    Duration                       : 6 min 3 s
    Bit rate mode                  : Variable
    Bit rate                       : 19.2 Mb/s
    Maximum bit rate               : 19.7 Mb/s
    Width                          : 1 920 pixels
    Height                         : 1 080 pixels
    Display aspect ratio           : 16:9
    Frame rate                     : 29.970 (30000/1001) FPS
    Color space                    : YUV
    Chroma subsampling             : 4:2:2
    Bit depth                      : 8 bits
    Scan type                      : Interlaced
    Scan order                     : Top Field First
    Compression mode               : Lossy
    Bits/(Pixel*Frame)             : 0.309
    Time code of first frame       : 01:00:09;29
    Time code source               : Group of pictures header
    GOP, Open/Closed               : Open
    Stream size                    : 831 MiB (93%)
    
    Audio
    ID                             : 256 (0x100)
    Menu ID                        : 1 (0x1)
    Format                         : MPEG Audio
    Format version                 : Version 1
    Format profile                 : Layer 2
    Codec ID                       : 3
    Duration                       : 6 min 3 s
    Bit rate mode                  : Constant
    Bit rate                       : 384 kb/s
    Channel(s)                     : 2 channels
    Sampling rate                  : 48.0 kHz
    Compression mode               : Lossy
    Delay relative to video        : 4 ms
    Stream size                    : 16.6 MiB (2%)
    Language                       : English

    [​IMG]
    Code:
    General
    ID                             : 1 (0x1)
    Complete name                  : D:\06 Drake ft. Mary J. Blige & Swizz Beatz - Fancy - MTV Video Music Awards 2010 1080i.ts
    Format                         : MPEG-TS
    File size                      : 794 MiB
    Duration                       : 5 min 22 s
    Overall bit rate mode          : Variable
    Overall bit rate               : 20.6 Mb/s
    
    Video
    ID                             : 308 (0x134)
    Menu ID                        : 1 (0x1)
    Format                         : MPEG Video
    Format version                 : Version 2
    Format profile                 : 4:2:2@High
    Format settings, BVOP          : Yes
    Format settings, Matrix        : Custom
    Format settings, GOP           : M=3, N=15
    Format settings, picture struc : Frame
    Codec ID                       : 2
    Duration                       : 5 min 22 s
    Bit rate mode                  : Variable
    Bit rate                       : 19.2 Mb/s
    Maximum bit rate               : 19.7 Mb/s
    Width                          : 1 920 pixels
    Height                         : 1 080 pixels
    Display aspect ratio           : 16:9
    Frame rate                     : 29.970 (30000/1001) FPS
    Color space                    : YUV
    Chroma subsampling             : 4:2:2
    Bit depth                      : 8 bits
    Scan type                      : Interlaced
    Scan order                     : Top Field First
    Compression mode               : Lossy
    Bits/(Pixel*Frame)             : 0.309
    Time code of first frame       : 01:09:20;25
    Time code source               : Group of pictures header
    GOP, Open/Closed               : Open
    Stream size                    : 739 MiB (93%)
    
    Audio
    ID                             : 256 (0x100)
    Menu ID                        : 1 (0x1)
    Format                         : MPEG Audio
    Format version                 : Version 1
    Format profile                 : Layer 2
    Codec ID                       : 3
    Duration                       : 5 min 22 s
    Bit rate mode                  : Constant
    Bit rate                       : 384 kb/s
    Channel(s)                     : 2 channels
    Sampling rate                  : 48.0 kHz
    Compression mode               : Lossy
    Delay relative to video        : 8 ms
    Stream size                    : 14.8 MiB (2%)
    Language                       : English

    [​IMG]
    Code:
    General
    ID                             : 1 (0x1)
    Complete name                  : D:\07 B.O.B ft. Bruno Mars & Hayley Williams - Nothin' on You (Intro) & Airplanes - MTV Video Music Awards 2010 1080i.ts
    Format                         : MPEG-TS
    File size                      : 521 MiB
    Duration                       : 3 min 32 s
    Overall bit rate mode          : Variable
    Overall bit rate               : 20.6 Mb/s
    
    Video
    ID                             : 308 (0x134)
    Menu ID                        : 1 (0x1)
    Format                         : MPEG Video
    Format version                 : Version 2
    Format profile                 : 4:2:2@High
    Format settings, BVOP          : Yes
    Format settings, Matrix        : Custom
    Format settings, GOP           : M=3, N=15
    Format settings, picture struc : Frame
    Codec ID                       : 2
    Duration                       : 3 min 32 s
    Bit rate mode                  : Variable
    Bit rate                       : 19.2 Mb/s
    Maximum bit rate               : 19.7 Mb/s
    Width                          : 1 920 pixels
    Height                         : 1 080 pixels
    Display aspect ratio           : 16:9
    Frame rate                     : 29.970 (30000/1001) FPS
    Color space                    : YUV
    Chroma subsampling             : 4:2:2
    Bit depth                      : 8 bits
    Scan type                      : Interlaced
    Scan order                     : Top Field First
    Compression mode               : Lossy
    Bits/(Pixel*Frame)             : 0.309
    Time code of first frame       : 01:19:19;08
    Time code source               : Group of pictures header
    GOP, Open/Closed               : Open
    Stream size                    : 486 MiB (93%)
    
    Audio
    ID                             : 256 (0x100)
    Menu ID                        : 1 (0x1)
    Format                         : MPEG Audio
    Format version                 : Version 1
    Format profile                 : Layer 2
    Codec ID                       : 3
    Duration                       : 3 min 32 s
    Bit rate mode                  : Constant
    Bit rate                       : 384 kb/s
    Channel(s)                     : 2 channels
    Sampling rate                  : 48.0 kHz
    Compression mode               : Lossy
    Delay relative to video        : 7 ms
    Stream size                    : 9.72 MiB (2%)
    Language                       : English

    [​IMG]
    Code:
    General
    ID                             : 1 (0x1)
    Complete name                  : D:\08 Paramore - The Only Exception - MTV Video Music Awards 2010 1080i.ts
    Format                         : MPEG-TS
    File size                      : 256 MiB
    Duration                       : 1 min 44 s
    Overall bit rate mode          : Variable
    Overall bit rate               : 20.6 Mb/s
    
    Video
    ID                             : 308 (0x134)
    Menu ID                        : 1 (0x1)
    Format                         : MPEG Video
    Format version                 : Version 2
    Format profile                 : 4:2:2@High
    Format settings, BVOP          : Yes
    Format settings, Matrix        : Custom
    Format settings, GOP           : M=3, N=15
    Format settings, picture struc : Frame
    Codec ID                       : 2
    Duration                       : 1 min 43 s
    Bit rate mode                  : Variable
    Bit rate                       : 19.2 Mb/s
    Maximum bit rate               : 19.7 Mb/s
    Width                          : 1 920 pixels
    Height                         : 1 080 pixels
    Display aspect ratio           : 16:9
    Frame rate                     : 29.970 (30000/1001) FPS
    Color space                    : YUV
    Chroma subsampling             : 4:2:2
    Bit depth                      : 8 bits
    Scan type                      : Interlaced
    Scan order                     : Top Field First
    Compression mode               : Lossy
    Bits/(Pixel*Frame)             : 0.309
    Time code of first frame       : 01:22:50;27
    Time code source               : Group of pictures header
    GOP, Open/Closed               : Open
    Stream size                    : 238 MiB (93%)
    
    Audio
    ID                             : 256 (0x100)
    Menu ID                        : 1 (0x1)
    Format                         : MPEG Audio
    Format version                 : Version 1
    Format profile                 : Layer 2
    Codec ID                       : 3
    Duration                       : 1 min 44 s
    Bit rate mode                  : Constant
    Bit rate                       : 384 kb/s
    Channel(s)                     : 2 channels
    Sampling rate                  : 48.0 kHz
    Compression mode               : Lossy
    Delay relative to video        : 7 ms
    Stream size                    : 4.77 MiB (2%)
    Language                       : English

    [​IMG]
    Code:
    General
    ID                             : 1 (0x1)
    Complete name                  : D:\09 Linkin Park - The Catalyst - MTV Video Music Awards 2010 1080i.ts
    Format                         : MPEG-TS
    File size                      : 448 MiB
    Duration                       : 4 min 4 s
    Overall bit rate mode          : Variable
    Overall bit rate               : 15.4 Mb/s
    Law rating                     : TV-14 (DL)
    
    Video
    ID                             : 6401 (0x1901)
    Menu ID                        : 1 (0x1)
    Format                         : MPEG Video
    Format version                 : Version 2
    Format profile                 : Main@High
    Format settings, BVOP          : Yes
    Format settings, Matrix        : Custom
    Format settings, GOP           : M=3, N=15
    Format settings, picture struc : Frame
    Codec ID                       : 2
    Duration                       : 4 min 4 s
    Bit rate mode                  : Variable
    Bit rate                       : 14.2 Mb/s
    Maximum bit rate               : 18.0 Mb/s
    Width                          : 1 920 pixels
    Height                         : 1 080 pixels
    Display aspect ratio           : 16:9
    Frame rate                     : 29.970 (30000/1001) FPS
    Color space                    : YUV
    Chroma subsampling             : 4:2:0
    Bit depth                      : 8 bits
    Scan type                      : Interlaced
    Scan order                     : Top Field First
    Compression mode               : Lossy
    Bits/(Pixel*Frame)             : 0.229
    Time code of first frame       : 00:00:00;00
    Time code source               : Group of pictures header
    GOP, Open/Closed               : Open
    GOP, Open/Closed of first fram : Closed
    Stream size                    : 415 MiB (92%)
    
    Audio
    ID                             : 6402 (0x1902)
    Menu ID                        : 1 (0x1)
    Format                         : AC-3
    Format/Info                    : Audio Coding 3
    Format settings, Endianness    : Big
    Codec ID                       : 129
    Duration                       : 4 min 4 s
    Bit rate mode                  : Constant
    Bit rate                       : 384 kb/s
    Channel(s)                     : 6 channels
    Channel positions              : Front: L C R, Side: L R, LFE
    Sampling rate                  : 48.0 kHz
    Frame rate                     : 31.250 FPS (1536 SPF)
    Bit depth                      : 16 bits
    Compression mode               : Lossy
    Stream size                    : 11.2 MiB (2%)
    Service kind                   : Complete Main
    
    Text #1
    ID                             : 6401 (0x1901)-CC1
    Menu ID                        : 1 (0x1)
    Format                         : EIA-608
    Muxing mode                    : A/53 / DTVCC Transport
    Muxing mode, more info         : Muxed in Video #1
    Duration                       : 4 min 4 s
    Bit rate mode                  : Constant
    Stream size                    : 0.00 Byte (0%)
    CaptionServiceName             : CC1
    
    Text #2
    ID                             : 6401 (0x1901)-1
    Menu ID                        : 1 (0x1)
    Format                         : EIA-708
    Muxing mode                    : A/53 / DTVCC Transport
    Muxing mode, more info         : Muxed in Video #1
    Duration                       : 4 min 4 s
    Bit rate mode                  : Constant
    Stream size                    : 0.00 Byte (0%)

    [​IMG]
    Code:
    General
    ID                             : 1 (0x1)
    Complete name                  : D:\10 Kanye West ft. Pusha T - Runaway - MTV Video Music Awards 2010 1080i.ts
    Format                         : MPEG-TS
    File size                      : 922 MiB
    Duration                       : 6 min 15 s
    Overall bit rate mode          : Variable
    Overall bit rate               : 20.6 Mb/s
    
    Video
    ID                             : 308 (0x134)
    Menu ID                        : 1 (0x1)
    Format                         : MPEG Video
    Format version                 : Version 2
    Format profile                 : 4:2:2@High
    Format settings, BVOP          : Yes
    Format settings, Matrix        : Custom
    Format settings, GOP           : M=3, N=15
    Format settings, picture struc : Frame
    Codec ID                       : 2
    Duration                       : 6 min 15 s
    Bit rate mode                  : Variable
    Bit rate                       : 19.2 Mb/s
    Maximum bit rate               : 19.7 Mb/s
    Width                          : 1 920 pixels
    Height                         : 1 080 pixels
    Display aspect ratio           : 16:9
    Frame rate                     : 29.970 (30000/1001) FPS
    Color space                    : YUV
    Chroma subsampling             : 4:2:2
    Bit depth                      : 8 bits
    Scan type                      : Interlaced
    Scan order                     : Top Field First
    Compression mode               : Lossy
    Bits/(Pixel*Frame)             : 0.309
    Time code of first frame       : 01:41:52;08
    Time code source               : Group of pictures header
    GOP, Open/Closed               : Open
    Stream size                    : 859 MiB (93%)
    
    Audio
    ID                             : 256 (0x100)
    Menu ID                        : 1 (0x1)
    Format                         : MPEG Audio
    Format version                 : Version 1
    Format profile                 : Layer 2
    Codec ID                       : 3
    Duration                       : 6 min 15 s
    Bit rate mode                  : Constant
    Bit rate                       : 384 kb/s
    Channel(s)                     : 2 channels
    Sampling rate                  : 48.0 kHz
    Compression mode               : Lossy
    Delay relative to video        : 19 ms
    Stream size                    : 17.2 MiB (2%)
    Language                       : English

    Hidden Content:
    You must reply before you can see the hidden data contained here.
    Credits to the original capper :)
    PS: Pictures updated May 22nd 2018.
     
  2. Loading...


  3. GEOLINK

    GEOLINK Member

    Joined:
    Oct 21, 2017
    Messages:
    31
    Likes Received:
    0
    THANKS!
     
  4. jcesar140380

    jcesar140380 Active Member

    Joined:
    Sep 4, 2017
    Messages:
    234
    Likes Received:
    35
    omg... thank you full....
     
  5. sideshow_bob

    sideshow_bob Well-Known Member

    Joined:
    Dec 20, 2013
    Messages:
    3,270
    Likes Received:
    239
    Thank you!
     
  6. dersullana

    dersullana Well-Known Member

    Joined:
    Dec 21, 2015
    Messages:
    1,179
    Likes Received:
    56
  7. thinkingdualipa

    thinkingdualipa Active Member

    Joined:
    Jun 26, 2017
    Messages:
    442
    Likes Received:
    29
    wow amazing thank you!!!
     
  8. Adaros

    Adaros Active Member

    Joined:
    Jun 5, 2016
    Messages:
    752
    Likes Received:
    96
    Thanks
     
  9. orionN

    orionN Active Member

    Joined:
    Jan 26, 2018
    Messages:
    780
    Likes Received:
    41
    thanks for eminem and rihanna
     
  10. q11176641

    q11176641 Member

    Joined:
    Oct 8, 2017
    Messages:
    126
    Likes Received:
    3
  11. exterminador

    exterminador Well-Known Member

    Joined:
    Jul 3, 2016
    Messages:
    2,562
    Likes Received:
    213
  12. rcj

    rcj Active Member

    Joined:
    May 11, 2016
    Messages:
    821
    Likes Received:
    43
    Thank U!
     
  13. apl3

    apl3 Well-Known Member

    Joined:
    Jun 11, 2017
    Messages:
    1,271
    Likes Received:
    35
    thanks
     
  14. Chris

    Chris Active Member

    Joined:
    Oct 19, 2013
    Messages:
    770
    Likes Received:
    26
    Thank you
     
  15. AdrielMeh

    AdrielMeh Member

    Joined:
    Feb 1, 2017
    Messages:
    292
    Likes Received:
    13
    Thanksss
     
  16. zetton

    zetton Member

    Joined:
    Nov 7, 2016
    Messages:
    84
    Likes Received:
    3
    Thank you
     
  17. tenfour

    tenfour Member

    Joined:
    Dec 22, 2015
    Messages:
    523
    Likes Received:
    16
    Thanks!
     
  18. 鄭景文

    鄭景文 Member

    Joined:
    Dec 10, 2017
    Messages:
    341
    Likes Received:
    9
  19. tilon

    tilon Member

    Joined:
    Oct 2, 2016
    Messages:
    270
    Likes Received:
    12
    thxxx
     
  20. miguelmr87

    miguelmr87 Well-Known Member

    Joined:
    Dec 20, 2013
    Messages:
    1,937
    Likes Received:
    371
  21. robenn

    robenn Active Member

    Joined:
    May 29, 2014
    Messages:
    693
    Likes Received:
    76
    Thank you!