PACK MTV Top 20 [Aug-17-2019] MTVHD 1080i HDTV DD2.0 H.264 CELOBRAZiL-HDMania

Discussion in 'MTV HD' started by CELOBRAZiL, Aug 22, 2019.

  1. CELOBRAZiL

    CELOBRAZiL Well-Known Member Capper V . I . P. Donor

    Joined:
    Oct 2, 2013
    Messages:
    7,603
    Likes Received:
    25,342
    MTV Top 20 [Aug-17-2019] MTVHD 1080i HDTV DD2.0 H.264 CELOBRAZiL-HDMania

    [​IMG]



    Format : MPEG-TS
    File size : 3.26 GiB
    Duration : 1 h 16 min
    Overall bit rate mode : Variable
    Overall bit rate : 6 100 kb/s

    Video
    ID : 4128 (0x1020)
    Menu ID : 5040 (0x13B0)
    Format : AVC
    Format/Info : Advanced Video Codec
    Format profile : High@L4
    Format settings : CABAC / 3 Ref Frames
    Format settings, CABAC : Yes
    Format settings, RefFrames : 3 frames
    Codec ID : 27
    Duration : 1 h 16 min
    Bit rate : 5 605 kb/s
    Width : 1 920 pixels
    Height : 1 080 pixels
    Display aspect ratio : 16:9
    Frame rate : 29.970 (30000/1001) FPS
    Color space : YUV
    Chroma subsampling : 4:2:0
    Bit depth : 8 bits
    Scan type : MBAFF
    Scan type, store method : Interleaved fields
    Scan order : Top Field First
    Bits/(Pixel*Frame) : 0.090
    Stream size : 2.99 GiB (92%)

    Audio
    ID : 4129 (0x1021)
    Menu ID : 5040 (0x13B0)
    Format : AC-3
    Format/Info : Audio Coding 3
    Commercial name : Dolby Digital
    Codec ID : 129
    Duration : 1 h 16 min
    Bit rate mode : Constant
    Bit rate : 192 kb/s
    Channel(s) : 2 channels
    Channel layout : L R
    Sampling rate : 48.0 kHz
    Frame rate : 31.250 FPS (1536 SPF)
    Bit depth : 16 bits
    Compression mode : Lossy
    Stream size : 105 MiB (3%)
    Language : English
    Service kind : Complete Main


    :: TRACKLiST ::

    [20] Mariah Carey - A No No
    [19] Post Malone - Better Now
    [18] Little Mix - Bounce Back [CC]
    [17] Beyoncé - Spirit (From Disney's The Lion King)
    [16] Miley Cyrus - Mother's Daughter
    [15] Mark Ronson & Camila Cabello - Find U Again
    [14] Shawn Mendes feat. Camila Cabello - Senorita
    [13] Ariana Grande feat. Social House - Boyfriend [CC]
    [12] Mc WM, Pocah & Jerry Smith - Para Não
    [11] Anitta feat. Becky G - Banana
    [10] Why Don't We - Unbelieveble
    [09] Blackpink - Kill this Love
    [08] The Chainsmokers feat. Bebe Rexha - Call You Mine
    [07] Abraham Mateo feat. CNCO - Me Vuelvo Loco
    [06] Zayn - Satisfaction
    [05] Now United - Sunday Morning
    [04] Louis Tomlinson - Two of Us
    [03] Now United - Crazy Stupid Silly Love
    [02] BTS - Heartbeat
    [01] BTS - Lights


    Link(s):
    Hidden Content:
    You must either reply or click 'Like' to see the hidden information contained here.
     
    Adnan, pitolicie, rhea and 4 others like this.
  2. Loading...


  3. CELOBRAZiL

    CELOBRAZiL Well-Known Member Capper V . I . P. Donor

    Joined:
    Oct 2, 2013
    Messages:
    7,603
    Likes Received:
    25,342
    :love::love::love:

    Added GOOGLE DRIVE link! :)
     
  4. blackford

    blackford Active Member

    Joined:
    Apr 18, 2017
    Messages:
    500
    Likes Received:
    70
    Thank you
     
    CELOBRAZiL likes this.
  5. nolynexor88

    nolynexor88 Well-Known Member

    Joined:
    Sep 29, 2015
    Messages:
    1,812
    Likes Received:
    153
    Thank you
     
    CELOBRAZiL likes this.
  6. Ross

    Ross Active Member

    Joined:
    Oct 19, 2014
    Messages:
    766
    Likes Received:
    95
    thanks
     
    CELOBRAZiL likes this.
  7. rhea

    rhea Well-Known Member

    Joined:
    Jan 6, 2014
    Messages:
    9,717
    Likes Received:
    1,689
    thank you so much! :)
     
    CELOBRAZiL likes this.