HDTV MTV Europe Music Awards Bilbao 2018 MTVHD 1080i HDTV DD2.0 H.264 CELOBRAZiL-HDMania

Discussion in 'HD Live Performances' started by CELOBRAZiL, Nov 8, 2018.

  1. CELOBRAZiL

    CELOBRAZiL Well-Known Member Capper V . I . P. Donor

    Joined:
    Oct 2, 2013
    Messages:
    5,916
    Likes Received:
    19,266
    MTV Europe Music Awards Bilbao 2018 MTVHD 1080i HDTV DD2.0 H.264 CELOBRAZiL-HDMania

    [​IMG]



    Format : MPEG-TS
    File size : 4.28 GiB
    Duration : 1 h 30 min
    Overall bit rate mode : Variable
    Overall bit rate : 6 804 kb/s

    Video
    ID : 4128 (0x1020)
    Menu ID : 5040 (0x13B0)
    Format : AVC
    Format/Info : Advanced Video Codec
    Format profile : High@L4
    Format settings : CABAC / 3 Ref Frames
    Format settings, CABAC : Yes
    Format settings, RefFrames : 3 frames
    Codec ID : 27
    Duration : 1 h 30 min
    Bit rate : 6 274 kb/s
    Width : 1 920 pixels
    Height : 1 080 pixels
    Display aspect ratio : 16:9
    Frame rate : 29.970 (30000/1001) FPS
    Color space : YUV
    Chroma subsampling : 4:2:0
    Bit depth : 8 bits
    Scan type : MBAFF
    Scan type, store method : Interleaved fields
    Scan order : Top Field First
    Bits/(Pixel*Frame) : 0.101
    Stream size : 3.95 GiB (92%)

    Audio
    ID : 4130 (0x1022)
    Menu ID : 5040 (0x13B0)
    Format : AC-3
    Format/Info : Audio Coding 3
    Commercial name : Dolby Digital
    Codec ID : 129
    Duration : 1 h 30 min
    Bit rate mode : Constant
    Bit rate : 192 kb/s
    Channel(s) : 2 channels
    Channel layout : L R
    Sampling rate : 48.0 kHz
    Frame rate : 31.250 FPS (1536 SPF)
    Bit depth : 16 bits
    Compression mode : Lossy
    Stream size : 124 MiB (3%)
    Language : English
    Service kind : Complete Main

    Link(s):
    Hidden Content:
    You must either reply or click 'Like' to see the hidden information contained here.
     
    Ramon, britfan, Vjeans and 13 others like this.
  2. Loading...


  3. CELOBRAZiL

    CELOBRAZiL Well-Known Member Capper V . I . P. Donor

    Joined:
    Oct 2, 2013
    Messages:
    5,916
    Likes Received:
    19,266
  4. falk

    falk Active Member

    Joined:
    Apr 9, 2014
    Messages:
    245
    Likes Received:
    30
    many thanks!
     
    CELOBRAZiL likes this.
  5. johnnyboytoy

    johnnyboytoy Member

    Joined:
    Jul 10, 2017
    Messages:
    36
    Likes Received:
    3
    Thank you!!!
     
    CELOBRAZiL likes this.
  6. valentiv

    valentiv Member

    Joined:
    May 4, 2018
    Messages:
    172
    Likes Received:
    4
    frfrfrfrf
     
  7. junior.ca

    junior.ca Well-Known Member

    Joined:
    Jun 1, 2014
    Messages:
    1,990
    Likes Received:
    104
    OBRIGADO
     
    CELOBRAZiL likes this.
  8. Mehdia_St

    Mehdia_St Member

    Joined:
    Jun 19, 2014
    Messages:
    121
    Likes Received:
    7
    thanks
     
    CELOBRAZiL likes this.
  9. GEDI82AO

    GEDI82AO Member

    Joined:
    Nov 14, 2016
    Messages:
    91
    Likes Received:
    27
    thanks
     
    CELOBRAZiL likes this.
  10. toonbbv

    toonbbv Well-Known Member

    Joined:
    Dec 11, 2013
    Messages:
    2,289
    Likes Received:
    108
    thank u
     
    CELOBRAZiL likes this.
  11. nikolaj9

    nikolaj9 Member

    Joined:
    Jun 25, 2017
    Messages:
    30
    Likes Received:
    4
    thanks
     
    CELOBRAZiL likes this.
  12. Leafsfan

    Leafsfan Member

    Joined:
    Oct 24, 2015
    Messages:
    64
    Likes Received:
    7
    Thank you.
     
    CELOBRAZiL likes this.
  13. Willyam Marshall

    Willyam Marshall Member

    Joined:
    Sep 26, 2017
    Messages:
    520
    Likes Received:
    14
    thank you
     
    CELOBRAZiL likes this.
  14. marcellosaymmon

    marcellosaymmon Member

    Joined:
    Apr 17, 2016
    Messages:
    69
    Likes Received:
    4
    thank u
     
    CELOBRAZiL likes this.
  15. tvixsp

    tvixsp Member

    Joined:
    Nov 12, 2015
    Messages:
    150
    Likes Received:
    9
    thanks
     
    CELOBRAZiL likes this.
  16. vborgof

    vborgof Member

    Joined:
    Jun 22, 2014
    Messages:
    353
    Likes Received:
    12
    thanks
     
    CELOBRAZiL likes this.
  17. Mupenzi Patrick

    Mupenzi Patrick Active Member

    Joined:
    Jun 22, 2018
    Messages:
    638
    Likes Received:
    32
    thank you
     
    CELOBRAZiL likes this.
  18. mizdot

    mizdot Well-Known Member

    Joined:
    Nov 13, 2014
    Messages:
    3,225
    Likes Received:
    138
    tnx man
     
    CELOBRAZiL likes this.
  19. AK1984

    AK1984 Member

    Joined:
    Oct 14, 2014
    Messages:
    164
    Likes Received:
    22
    Thanks!
     
    CELOBRAZiL likes this.
  20. isham023

    isham023 Well-Known Member

    Joined:
    Nov 30, 2013
    Messages:
    2,680
    Likes Received:
    93
    THANKS
     
    CELOBRAZiL likes this.
  21. Vjeans

    Vjeans Well-Known Member V . I . P.

    Joined:
    May 10, 2014
    Messages:
    1,333
    Likes Received:
    4,145
    Thank you!
     
    CELOBRAZiL likes this.