Missy Elliott - Work It (M6MUSICHD-1080i-DD2.0-Djodjara)-HDMania

Discussion in 'M6 HD' started by Djodjara, Jul 9, 2015.

  1. Djodjara

    Djodjara Gwen Fan Capper

    Joined:
    Sep 6, 2014
    Messages:
    784
    Likes Received:
    1,415
    Missy Elliott - Work It (M6 Music-1080i-Djodjara)-HDMania


    [​IMG]
    [​IMG]

    General:
    ID : 1 (0x1)
    Format : MPEG-TS
    File size : 211 MiB
    Duration : 4mn 23s
    Overall bit rate mode : Variable
    Overall bit rate : 6 706 Kbps

    Video:
    ID : 310 (0x136)
    Menu ID : 1 (0x1)
    Format : AVC
    Format/Info : Advanced Video Codec
    Format profile : [email protected]
    Format settings, CABAC : Yes
    Format settings, ReFrames : 4 frames
    Codec ID : 27
    Duration : 4mn 23s
    Bit rate : 6 181 Kbps
    Width : 1 920 pixels
    Height : 1 080 pixels
    Display aspect ratio : 16:9
    Frame rate : 25.000 fps
    Standard : Component
    Color space : YUV
    Chroma subsampling : 4:2:0
    Bit depth : 8 bits
    Scan type : MBAFF
    Scan order : Top Field First
    Bits/(Pixel*Frame) : 0.119
    Stream size : 194 MiB (92%)
    Color primaries : BT.709
    Transfer characteristics : BT.709
    Matrix coefficients : BT.709
    Color range : Limited

    Audio:
    ID : 321 (0x141)
    Menu ID : 1 (0x1)
    Format : AC-3
    Format/Info : Audio Coding 3
    Mode extension : CM (complete main)
    Format settings, Endianness : Big
    Codec ID : 6
    Duration : 4mn 23s
    Bit rate mode : Constant
    Bit rate : 192 Kbps
    Channel(s) : 2 channels
    Channel positions : Front: L R
    Sampling rate : 48.0 KHz
    Bit depth : 16 bits
    Compression mode : Lossy
    Stream size : 6.03 MiB (3%)
    Language : French

    Hidden Content:
    You must reply before you can see the hidden data contained here.
     
    lyana94, Dreamer, Thassyo and 3 others like this.
  2. Loading...


  3. 777josem

    777josem ProRes 1080p LPCM V . I . P. Uploader

    Joined:
    Sep 1, 2014
    Messages:
    3,572
    Likes Received:
    2,744
    :happy:Thank you so much, Djodjara
     
  4. rhea

    rhea Well-Known Member

    Joined:
    Jan 6, 2014
    Messages:
    6,607
    Likes Received:
    674
    thank you so much!
     
  5. Thassyo

    Thassyo Well-Known Member

    Joined:
    Oct 9, 2013
    Messages:
    2,403
    Likes Received:
    981
    THANK YOU
     
  6. Crusha

    Crusha Well-Known Member Capper V . I . P.

    Joined:
    Oct 15, 2014
    Messages:
    2,355
    Likes Received:
    2,522
    thank you
     
  7. mizdot

    mizdot Well-Known Member

    Joined:
    Nov 13, 2014
    Messages:
    1,727
    Likes Received:
    37
    tnx man
     
  8. Dreamer

    Dreamer Lana Del Rey ♥ Halsey Capper V . I . P. Uploader

    Joined:
    Dec 4, 2014
    Messages:
    2,802
    Likes Received:
    3,921
    Thank you so much!
     
  9. yonita

    yonita Active Member

    Joined:
    Mar 7, 2016
    Messages:
    427
    Likes Received:
    40
    gracias
     
  10. umisea

    umisea Member

    Joined:
    Mar 14, 2014
    Messages:
    94
    Likes Received:
    2
    Thanks a lot
     
  11. Pavulon

    Pavulon Well-Known Member

    Joined:
    Mar 22, 2016
    Messages:
    2,783
    Likes Received:
    307
    thanks
     
  12. Clannadan

    Clannadan Active Member

    Joined:
    Jun 17, 2016
    Messages:
    150
    Likes Received:
    29
    Thanks!
     
  13. Jrec

    Jrec Active Member

    Joined:
    May 11, 2016
    Messages:
    652
    Likes Received:
    32
    Thanks
     
  14. kendoh

    kendoh Member

    Joined:
    Jun 28, 2016
    Messages:
    112
    Likes Received:
    3
    My favourite Missy Elliott MV. Thanks for sharing.
     
  15. adam dark

    adam dark Video Music Lover <3 V . I . P.

    Joined:
    Dec 5, 2013
    Messages:
    2,601
    Likes Received:
    4,779
  16. tapions

    tapions Active Member

    Joined:
    Aug 30, 2016
    Messages:
    897
    Likes Received:
    69
    gracias
     
  17. yiggy76

    yiggy76 New Member

    Joined:
    Oct 3, 2016
    Messages:
    21
    Likes Received:
    0
    thanks
     
  18. wangyuqiang

    wangyuqiang Member

    Joined:
    Jul 21, 2016
    Messages:
    135
    Likes Received:
    4
    thank you
     
  19. looky

    looky Member

    Joined:
    Mar 22, 2017
    Messages:
    182
    Likes Received:
    4
    gracias.
     
  20. slapatologist

    slapatologist Active Member

    Joined:
    Jan 30, 2017
    Messages:
    122
    Likes Received:
    43
  21. yovany

    yovany Member

    Joined:
    Mar 31, 2017
    Messages:
    48
    Likes Received:
    3
    when music rocks