HDTV Miley Cyrus - Rockin' Around The Christmas Tree (Christmas In Rockefeller Center 2008)1080i

Discussion in 'HD Live Performances' started by weiweiliangyan, Sep 19, 2014.

  1. weiweiliangyan

    weiweiliangyan Well-Known Member V . I . P.

    Joined:
    Oct 3, 2013
    Messages:
    582
    Likes Received:
    8,585
    [​IMG]
    Code:
    Complete name                  :  Miley Cyrus - Rockin' Around The Christmas Tree (Live @ Christmas In Rockefeller Center 2008)[HDTV-1080i].ts
    Format                         : MPEG-TS
    File size                      : 291 MiB
    Duration                       : 2mn 22s
    Overall bit rate mode          : Variable
    Overall bit rate               : 17.1 Mbps
    Maximum Overall bit rate       : 35.5 Mbps
    
    Video
    ID                             : 4113 (0x1011)
    Menu ID                        : 1 (0x1)
    Format                         : MPEG Video
    Format version                 : Version 2
    Format profile                 : Main@High
    Format settings, BVOP          : Yes
    Format settings, Matrix        : Custom
    Format settings, GOP           : M=3, N=15
    Codec ID                       : 2
    Duration                       : 2mn 22s
    Bit rate mode                  : Variable
    Bit rate                       : 15.9 Mbps
    Maximum bit rate               : 65.0 Mbps
    Width                          : 1 920 pixels
    Height                         : 1 080 pixels
    Display aspect ratio           : 16:9
    Frame rate                     : 29.970 fps
    Color space                    : YUV
    Chroma subsampling             : 4:2:0
    Bit depth                      : 8 bits
    Scan type                      : Interlaced
    Scan order                     : Bottom Field First
    Compression mode               : Lossy
    Bits/(Pixel*Frame)             : 0.256
    Time code of first frame       : 03:50:00;21
    Time code source               : Group of pictures header
    Stream size                    : 269 MiB (92%)
    
    Audio
    ID                             : 4352 (0x1100)
    Menu ID                        : 1 (0x1)
    Format                         : AC-3
    Format/Info                    : Audio Coding 3
    Mode extension                 : CM (complete main)
    Format settings, Endianness    : Big
    Codec ID                       : 129
    Duration                       : 2mn 22s
    Bit rate mode                  : Constant
    Bit rate                       : 384 Kbps
    Channel(s)                     : 6 channels
    Channel positions              : Front: L C R, Side: L R, LFE
    Sampling rate                  : 48.0 KHz
    Bit depth                      : 16 bits
    Compression mode               : Lossy
    Delay relative to video        : -111ms
    Stream size                    : 6.52 MiB (2%)
    
    Text #1
    ID                             : 4113 (0x1011)-CC1
    Menu ID                        : 1 (0x1)
    Format                         : EIA-608
    Muxing mode                    : A/53 / DTVCC Transport
    Muxing mode, more info         : Muxed in Video #1
    Duration                       : 2mn 22s
    Bit rate mode                  : Constant
    Stream size                    : 0.00 Byte (0%)
    
    Text #2
    ID                             : 4113 (0x1011)-1
    Menu ID                        : 1 (0x1)
    Format                         : EIA-708
    Muxing mode                    : A/53 / DTVCC Transport
    Muxing mode, more info         : Muxed in Video #1
    Duration                       : 2mn 22s
    Bit rate mode                  : Constant
    Stream size                    : 0.00 Byte (0%)
    
    Hidden Content:
    You must reply before you can see the hidden data contained here.
     
    sinshin, TrollHD, jenjer123 and 7 others like this.
  2. Loading...


  3. multimediafm

    multimediafm Well-Known Member Donor

    Joined:
    Mar 27, 2014
    Messages:
    15,550
    Likes Received:
    1,420
  4. shlanderous

    shlanderous Well-Known Member V . I . P. Donor

    Joined:
    Oct 20, 2013
    Messages:
    2,723
    Likes Received:
    31,194
  5. rhea

    rhea Well-Known Member

    Joined:
    Jan 6, 2014
    Messages:
    10,007
    Likes Received:
    1,781
    thanks a lot
     
  6. nino.navy

    nino.navy Well-Known Member

    Joined:
    May 30, 2014
    Messages:
    4,038
    Likes Received:
    291
    thank you sooo much
     
  7. Maura

    Maura Well-Known Member

    Joined:
    Apr 7, 2014
    Messages:
    3,639
    Likes Received:
    125
    thanks
     
  8. alex

    alex Well-Known Member

    Joined:
    Nov 21, 2013
    Messages:
    4,601
    Likes Received:
    428
    :victory:
     
  9. ePhysician

    ePhysician Active Member

    Joined:
    Jan 12, 2014
    Messages:
    455
    Likes Received:
    145
    Thanks
     
  10. MaggieS

    MaggieS Well-Known Member

    Joined:
    Sep 19, 2014
    Messages:
    1,258
    Likes Received:
    81
    http://www.sharemania.net/threads/miley-cyrus-rocking-around-the-christmas-tree-christmas-at-rockefeller-2008-1080i.1244/
     
  11. vocalranges

    vocalranges Member

    Joined:
    Nov 9, 2014
    Messages:
    283
    Likes Received:
    12
     
  12. xilak

    xilak Member

    Joined:
    May 20, 2014
    Messages:
    759
    Likes Received:
    8
    thanks
     
  13. Wroggy

    Wroggy Member

    Joined:
    May 19, 2014
    Messages:
    256
    Likes Received:
    12
    Thanks!
     
  14. jenjer123

    jenjer123 Member

    Joined:
    Jan 2, 2014
    Messages:
    367
    Likes Received:
    14
  15. Gonzalo

    Gonzalo Well-Known Member

    Joined:
    Sep 22, 2014
    Messages:
    1,345
    Likes Received:
    45
  16. xtomekx

    xtomekx Member

    Joined:
    Jan 13, 2014
    Messages:
    639
    Likes Received:
    19
    thank you
     
  17. kismakk

    kismakk Member

    Joined:
    Jul 2, 2014
    Messages:
    595
    Likes Received:
    14
    thank you
     
  18. hamdan

    hamdan Member

    Joined:
    May 30, 2015
    Messages:
    102
    Likes Received:
    0
    thanks alot
     
  19. Vinny

    Vinny Well-Known Member

    Joined:
    Dec 26, 2013
    Messages:
    4,408
    Likes Received:
    63
    Thank U!
     
  20. Amir Hossien

    Amir Hossien Member

    Joined:
    Feb 6, 2014
    Messages:
    885
    Likes Received:
    23
    thank you
     
  21. Snorom6

    Snorom6 Well-Known Member V . I . P. Uploader

    Joined:
    Dec 17, 2015
    Messages:
    4,246
    Likes Received:
    7,331