Miley Cyrus - Party In The USA (Vimeo-1080p-Djodjara)-HDMania

Discussion in 'Music Videos' started by Djodjara, Oct 29, 2016.

  1. knechtler15

    knechtler15 Member

    Joined:
    Jun 16, 2017
    Messages:
    229
    Likes Received:
    3
  2. RMA

    RMA Member

    Joined:
    May 28, 2017
    Messages:
    70
    Likes Received:
    0
    thanks
     
  3. dieqo_ss

    dieqo_ss New Member

    Joined:
    Jun 5, 2017
    Messages:
    17
    Likes Received:
    0
    weifjlsdkfjsdf
     
  4. echo.

    echo. a free spirit

    Joined:
    Jul 15, 2017
    Messages:
    149
    Likes Received:
    5
    Amazing quality... thanks for sharing!
     
    Last edited: Jul 15, 2017
  5. revilo18

    revilo18 Well-Known Member

    Joined:
    May 26, 2016
    Messages:
    2,271
    Likes Received:
    115
    T
    HANKKK
     
  6. Tadeulife

    Tadeulife Member

    Joined:
    Jan 21, 2016
    Messages:
    807
    Likes Received:
    21
  7. edsonavril33

    edsonavril33 Member

    Joined:
    Jun 17, 2017
    Messages:
    283
    Likes Received:
    15
  8. thedhmusican

    thedhmusican Member

    Joined:
    Aug 19, 2017
    Messages:
    247
    Likes Received:
    4
    OMG! Thanks
     
  9. popstar1

    popstar1 Member

    Joined:
    Jul 1, 2017
    Messages:
    165
    Likes Received:
    2
  10. Biel wicthoff

    Biel wicthoff Member

    Joined:
    Nov 7, 2016
    Messages:
    289
    Likes Received:
    6
  11. Kleopatra Girl

    Kleopatra Girl sweeeeetener

    Joined:
    Apr 28, 2017
    Messages:
    687
    Likes Received:
    635
    Thanks
     
  12. markitomg

    markitomg Active Member

    Joined:
    May 24, 2016
    Messages:
    797
    Likes Received:
    77
    tnks 4 it man
     
  13. Jb3nj-JB

    Jb3nj-JB Well-Known Member

    Joined:
    Aug 30, 2017
    Messages:
    231
    Likes Received:
    96
    Thanks.
     
  14. tn5656

    tn5656 Well-Known Member

    Joined:
    Jan 20, 2017
    Messages:
    3,767
    Likes Received:
    132
    thanks a lot
     
  15. tibar08

    tibar08 New Member

    Joined:
    Jun 30, 2017
    Messages:
    22
    Likes Received:
    0
    Thanks dude
     
  16. jonasla

    jonasla Member

    Joined:
    Apr 16, 2016
    Messages:
    116
    Likes Received:
    3
    fapdo re fapdo
     
  17. ramgelrogger

    ramgelrogger Member

    Joined:
    Jan 4, 2017
    Messages:
    53
    Likes Received:
    1
  18. arturorl13

    arturorl13 Member

    Joined:
    Sep 16, 2016
    Messages:
    416
    Likes Received:
    11
    thx so much
     
  19. hdverdammt

    hdverdammt Active Member

    Joined:
    Aug 22, 2017
    Messages:
    345
    Likes Received:
    64
    Miley Cyrus - Party In The USA (Vimeo-1080p-Djodjara)-HDMania

    Downloaded from Director's web page

    [​IMG]
    [​IMG]


    General:
    Format : MPEG-4
    Format profile : Base Media / Version 2
    Codec ID : mp42 (mp42/mp41/isom/avc1)
    File size : 117 MiB
    Duration : 3mn 26s
    Overall bit rate mode : Variable
    Overall bit rate : 4 728 Kbps
    Encoded date : UTC 2016-02-12 00:01:01
    Tagged date : UTC 2016-02-12 00:01:01

    Video:
    ID : 1
    Format : AVC
    Format/Info : Advanced Video Codec
    Format profile : High@L4
    Format settings, CABAC : Yes
    Format settings, ReFrames : 4 frames
    Codec ID : avc1
    Codec ID/Info : Advanced Video Coding
    Duration : 3mn 26s
    Bit rate : 4 500 Kbps
    Width : 1 920 pixels
    Height : 1 080 pixels
    Display aspect ratio : 16:9
    Frame rate mode : Constant
    Frame rate : 23.976 (24000/1001) fps
    Color space : YUV
    Chroma subsampling : 4:2:0
    Bit depth : 8 bits
    Scan type : Progressive
    Bits/(Pixel*Frame) : 0.091
    Stream size : 110 MiB (94%)
    Writing library : x264 core 148 r11 a01e339

    Audio:
    ID : 2
    Format : AAC
    Format/Info : Advanced Audio Codec
    Format profile : LC
    Codec ID : 40
    Duration : 3mn 26s
    Bit rate mode : Variable
    Bit rate : 256 Kbps
    Channel(s) : 2 channels
    Channel positions : Front: L R
    Sampling rate : 48.0 KHz
    Frame rate : 46.875 fps (1024 spf)
    Compression mode : Lossy
    Stream size : 6.31 MiB (5%)
    Encoded date : UTC 2016-02-12 00:01:01
    Tagged date : UTC 2016-02-12 00:01:01


    ***Hidden content cannot be quoted.***
    [/QUOTE]
     
  20. xChildish

    xChildish Member

    Joined:
    Jul 6, 2016
    Messages:
    141
    Likes Received:
    4
    thanks!