HDTV Miley Cyrus - Party in the U.S.A. & Can't Be Tamed (MuchMusic Video Music Awards 2010) 1080i

Discussion in 'HD Live Performances' started by weiweiliangyan, May 5, 2014.

  1. weiweiliangyan

    weiweiliangyan Well-Known Member V . I . P.

    Joined:
    Oct 3, 2013
    Messages:
    548
    Likes Received:
    6,999
    [​IMG]
    Code:
    Complete name                  : Miley Cyrus - Party in the U.S.A. - MuchMusic Video Music Awards 2010 1080i HDTV DD5.1 MPEG2-CtrlHD.ts
    Format                         : MPEG-TS
    File size                      : 423 MiB
    Duration                       : 3mn 58s
    Overall bit rate mode          : Variable
    Overall bit rate               : 14.9 Mbps
    Law rating                     : 14+
    
    Video
    ID                             : 33 (0x21)
    Menu ID                        : 1 (0x1)
    Format                         : MPEG Video
    Format version                 : Version 2
    Format profile                 : [email protected]
    Format settings, BVOP          : Yes
    Format settings, Matrix        : Custom
    Format settings, GOP           : Variable
    Codec ID                       : 2
    Duration                       : 3mn 58s
    Bit rate mode                  : Variable
    Bit rate                       : 13.7 Mbps
    Maximum bit rate               : 19.0 Mbps
    Width                          : 1 920 pixels
    Height                         : 1 080 pixels
    Display aspect ratio           : 16:9
    Frame rate                     : 29.970 fps
    Standard                       : Component
    Color space                    : YUV
    Chroma subsampling             : 4:2:0
    Bit depth                      : 8 bits
    Scan type                      : Interlaced
    Scan order                     : Top Field First
    Compression mode               : Lossy
    Bits/(Pixel*Frame)             : 0.221
    Time code of first frame       : 00:00:14;25
    Time code source               : Group of pictures header
    Stream size                    : 391 MiB (92%)
    
    Audio
    ID                             : 36 (0x24)
    Menu ID                        : 1 (0x1)
    Format                         : AC-3
    Format/Info                    : Audio Coding 3
    Mode extension                 : CM (complete main)
    Format settings, Endianness    : Big
    Codec ID                       : 129
    Duration                       : 3mn 58s
    Bit rate mode                  : Constant
    Bit rate                       : 384 Kbps
    Channel(s)                     : 5 channels
    Channel positions              : Front: L C R, Side: L R
    Sampling rate                  : 48.0 KHz
    Bit depth                      : 16 bits
    Compression mode               : Lossy
    Delay relative to video        : -303ms
    Stream size                    : 10.9 MiB (3%)
    
    Text #1
    ID                             : 33 (0x21)-CC1
    Menu ID                        : 1 (0x1)
    Format                         : EIA-608
    Muxing mode                    : A/53 / DTVCC Transport
    Muxing mode, more info         : Muxed in Video #1
    Duration                       : 3mn 58s
    Bit rate mode                  : Constant
    Stream size                    : 0.00 Byte (0%)
    
    Text #2
    ID                             : 33 (0x21)-1
    Menu ID                        : 1 (0x1)
    Format                         : EIA-708
    Muxing mode                    : A/53 / DTVCC Transport
    Muxing mode, more info         : Muxed in Video #1
    Duration                       : 3mn 58s
    Bit rate mode                  : Constant
    Stream size                    : 0.00 Byte (0%)
    
    [​IMG]
    Code:
    Complete name                  :  Miley Cyrus - Can't Be Tamed - MuchMusic Video Music Awards 2010 1080i HDTV DD5.1 MPEG2-CtrlHD.ts
    Format                         : MPEG-TS
    File size                      : 670 MiB
    Duration                       : 5mn 26s
    Overall bit rate mode          : Variable
    Overall bit rate               : 17.2 Mbps
    
    Video
    ID                             : 33 (0x21)
    Menu ID                        : 1 (0x1)
    Format                         : MPEG Video
    Format version                 : Version 2
    Format profile                 : [email protected]
    Format settings, BVOP          : Yes
    Format settings, Matrix        : Custom
    Format settings, GOP           : M=3, N=15
    Codec ID                       : 2
    Duration                       : 5mn 26s
    Bit rate mode                  : Variable
    Bit rate                       : 16.0 Mbps
    Maximum bit rate               : 19.0 Mbps
    Width                          : 1 920 pixels
    Height                         : 1 080 pixels
    Display aspect ratio           : 16:9
    Frame rate                     : 29.970 fps
    Standard                       : Component
    Color space                    : YUV
    Chroma subsampling             : 4:2:0
    Bit depth                      : 8 bits
    Scan type                      : Interlaced
    Scan order                     : Top Field First
    Compression mode               : Lossy
    Bits/(Pixel*Frame)             : 0.257
    Time code of first frame       : 01:24:37;06
    Time code source               : Group of pictures header
    Stream size                    : 620 MiB (93%)
    
    Audio
    ID                             : 36 (0x24)
    Menu ID                        : 1 (0x1)
    Format                         : AC-3
    Format/Info                    : Audio Coding 3
    Mode extension                 : CM (complete main)
    Format settings, Endianness    : Big
    Codec ID                       : 129
    Duration                       : 5mn 26s
    Bit rate mode                  : Constant
    Bit rate                       : 384 Kbps
    Channel(s)                     : 5 channels
    Channel positions              : Front: L C R, Side: L R
    Sampling rate                  : 48.0 KHz
    Bit depth                      : 16 bits
    Compression mode               : Lossy
    Delay relative to video        : -321ms
    Stream size                    : 15.0 MiB (2%)
    
    Credits to CtrlHD

    Hidden Content:
    You must either reply or click 'Like' to see the hidden information contained here.
     
  2. Loading...


  3. Thassyo

    Thassyo Well-Known Member

    Joined:
    Oct 9, 2013
    Messages:
    2,399
    Likes Received:
    979
    Could post on another server? :/
     
  4. withcap

    withcap Well-Known Member

    Joined:
    Oct 29, 2013
    Messages:
    1,707
    Likes Received:
    98
    Thank you!
     
  5. multimediafm

    multimediafm Well-Known Member Donor

    Joined:
    Mar 27, 2014
    Messages:
    9,948
    Likes Received:
    576
  6. fredd1

    fredd1 Member Donor

    Joined:
    Apr 11, 2014
    Messages:
    194
    Likes Received:
    13
    could some re up on mega please thanks for the post
     
    Thassyo likes this.
  7. Antonio Barros

    Antonio Barros Active Member

    Joined:
    Nov 14, 2013
    Messages:
    903
    Likes Received:
    83
    thanxxxxxxxxxxxxxxxxxx
     
  8. celio

    celio Member

    Joined:
    Oct 29, 2013
    Messages:
    973
    Likes Received:
    17
    thank you very much
     
  9. Fabien Fournier

    Fabien Fournier Active Member

    Joined:
    Nov 14, 2013
    Messages:
    543
    Likes Received:
    61
    Thanks
     
  10. mikedreams

    mikedreams Well-Known Member Donor

    Joined:
    Nov 20, 2013
    Messages:
    424
    Likes Received:
    1,706
    Baidu as always works fine and fast for me.

    Thanks again.
     
  11. Wimpy2

    Wimpy2 Member

    Joined:
    Jan 21, 2014
    Messages:
    693
    Likes Received:
    22
    thanks
     
  12. BritneyBitchx

    BritneyBitchx Member

    Joined:
    Mar 27, 2014
    Messages:
    50
    Likes Received:
    3
  13. mvlmoraes

    mvlmoraes Well-Known Member Donor

    Joined:
    Nov 22, 2013
    Messages:
    1,714
    Likes Received:
    276
  14. abcde54321

    abcde54321 Member

    Joined:
    Apr 6, 2014
    Messages:
    805
    Likes Received:
    22
  15. franklele

    franklele Well-Known Member

    Joined:
    Nov 11, 2013
    Messages:
    2,103
    Likes Received:
    114
    thank you very much
     
  16. MaggieS

    MaggieS Well-Known Member

    Joined:
    Sep 19, 2014
    Messages:
    1,022
    Likes Received:
    48
    :love::love::love:
     
  17. scorpion20

    scorpion20 Active Member

    Joined:
    Sep 19, 2014
    Messages:
    352
    Likes Received:
    26
  18. xtomekx

    xtomekx Member

    Joined:
    Jan 13, 2014
    Messages:
    598
    Likes Received:
    15
    thank you so much
     
  19. xtomekx

    xtomekx Member

    Joined:
    Jan 13, 2014
    Messages:
    598
    Likes Received:
    15
    thank you so much
     
  20. feet65

    feet65 Well-Known Member

    Joined:
    Nov 12, 2013
    Messages:
    1,270
    Likes Received:
    79
    very
     
  21. feet65

    feet65 Well-Known Member

    Joined:
    Nov 12, 2013
    Messages:
    1,270
    Likes Received:
    79
    very good performance