Miley Cyrus - Miley: The Movement Deluxe (2013) HD720P Sys mkv

Discussion in 'Documentaries' started by TheMileyWood, Apr 3, 2017.

  1. TheMileyWood

    TheMileyWood Linkin Park Donor

    Joined:
    Jul 7, 2014
    Messages:
    113
    Likes Received:
    192
    Miley: The Movement Deluxe 720p

    [​IMG]

    Description:

    "I was born to become who I am right now… I’m at a point in my career where I can be exactly what I want to be, who I want to be.’".. Miley Cyrus says in her MTV-documentary ‘Miley: The Movement’. In the documentary we’ll follow her into the recording studio, out onto the road, and just about everywhere in-between. We see Miley's quest to redefine her career (and her image) on her terms, from her defining VMA moment and continuing on through the completion of her Bangerz album.

    Screenshots:
    [​IMG]

    Mediainfo:

    General
    Unique ID : 219029531976836313330732006186831415125 (0xA4C78DADD89A6C9DBFC9962DA0018755)
    Complete name : miley.the.movement.deluxe.edition.720p.hdtv.x264-sys.mkv
    Format : Matroska
    Format version : Version 4 / Version 2
    File size : 1.38 GiB
    Duration : 59 min 34 s
    Overall bit rate : 3 326 kb/s
    Encoded date : UTC 2013-10-07 01:58:05
    Writing application : mkvmerge v6.3.0 ('You can't stop me!') built on Jun 28 2013 20:09:41
    Writing library : libebml v1.3.0 + libmatroska v1.4.0

    Video
    ID : 1
    Format : AVC
    Format/Info : Advanced Video Codec
    Format profile : High@L4.1
    Format settings, CABAC : Yes
    Format settings, ReFrames : 5 frames
    Codec ID : V_MPEG4/ISO/AVC
    Duration : 59 min 34 s
    Bit rate : 2 875 kb/s
    Width : 1 280 pixels
    Height : 720 pixels
    Display aspect ratio : 16:9
    Frame rate mode : Constant
    Frame rate : 23.976 (24000/1001) FPS
    Color space : YUV
    Chroma subsampling : 4:2:0
    Bit depth : 8 bits
    Scan type : Progressive
    Bits/(Pixel*Frame) : 0.130
    Stream size : 1.20 GiB (86%)
    Writing library : x264 core 138 r2358 9e941d1
    Encoding settings : cabac=1 / ref=5 / deblock=1:0:0 / analyse=0x3:0x113 / me=umh / subme=8 / psy=1 / psy_rd=1.00:0.00 / mixed_ref=1 / me_range=16 / chroma_me=1 / trellis=1 / 8x8dct=1 / cqm=0 / deadzone=21,11 / fast_pskip=1 / chroma_qp_offset=-2 / threads=18 / lookahead_threads=3 / sliced_threads=0 / nr=0 / decimate=1 / interlaced=0 / bluray_compat=0 / constrained_intra=0 / bframes=3 / b_pyramid=2 / b_adapt=2 / b_bias=0 / direct=3 / weightb=1 / open_gop=0 / weightp=2 / keyint=250 / keyint_min=23 / scenecut=40 / intra_refresh=0 / rc_lookahead=50 / rc=crf / mbtree=1 / crf=20.0 / qcomp=0.60 / qpmin=0 / qpmax=69 / qpstep=4 / ip_ratio=1.40 / aq=1:1.00
    Language : English
    Default : Yes
    Forced : No

    Audio
    ID : 2
    Format : AC-3
    Format/Info : Audio Coding 3
    Mode extension : CM (complete main)
    Format settings, Endianness : Big
    Codec ID : A_AC3
    Duration : 59 min 34 s
    Bit rate mode : Constant
    Bit rate : 384 kb/s
    Channel(s) : 2 channels
    Channel positions : Front: L R
    Sampling rate : 48.0 kHz
    Frame rate : 31.250 FPS (1536 spf)
    Bit depth : 16 bits
    Compression mode : Lossy
    Delay relative to video : 22 ms
    Stream size : 164 MiB (12%)
    Default : Yes
    Forced : No

    Download:
    Hidden Content:
    You must reply before you can see the hidden data contained here.
     
    Last edited: Sep 9, 2018
  2. hanshermann

    hanshermann Well-Known Member Uploader

    Joined:
    Aug 24, 2016
    Messages:
    6,951
    Likes Received:
    11,257
    wahts taht
     
  3. femmemonsters

    femmemonsters Active Member

    Joined:
    Oct 8, 2015
    Messages:
    814
    Likes Received:
    39
  4. orgulo

    orgulo Active Member

    Joined:
    Jan 16, 2017
    Messages:
    958
    Likes Received:
    46
    thanks
     
    cupcake likes this.
  5. femmemonsters

    femmemonsters Active Member

    Joined:
    Oct 8, 2015
    Messages:
    814
    Likes Received:
    39
    it doesn't wanna download, it says Queued, i left it there all day while i was at work and it was still the same
     
  6. MG-1992

    MG-1992 Member

    Joined:
    Aug 29, 2016
    Messages:
    323
    Likes Received:
    16
    Thanks!
     
  7. TheMileyWood

    TheMileyWood Linkin Park Donor

    Joined:
    Jul 7, 2014
    Messages:
    113
    Likes Received:
    192
  8. luismolinanyc

    luismolinanyc Active Member

    Joined:
    May 17, 2016
    Messages:
    954
    Likes Received:
    35
  9. toni

    toni Member Donor

    Joined:
    Mar 2, 2014
    Messages:
    92
    Likes Received:
    6
    Thank you
     
  10. ron

    ron Well-Known Member

    Joined:
    Apr 4, 2014
    Messages:
    604
    Likes Received:
    341
    Thank you !
     
  11. EdenQ

    EdenQ Member

    Joined:
    Sep 10, 2016
    Messages:
    32
    Likes Received:
    0
    thanks
     
  12. cupcake

    cupcake Member

    Joined:
    Apr 24, 2016
    Messages:
    32
    Likes Received:
    1
    Cool thanks
     
  13. cupcake

    cupcake Member

    Joined:
    Apr 24, 2016
    Messages:
    32
    Likes Received:
    1
    thanks cool
     
  14. FanofTheStars

    FanofTheStars Well-Known Member

    Joined:
    Feb 11, 2017
    Messages:
    2,119
    Likes Received:
    178
    This looks like an interesting view. Thank you.
     
  15. andreatoscano

    andreatoscano New Member

    Joined:
    Jun 3, 2016
    Messages:
    20
    Likes Received:
    0
  16. abcde54321

    abcde54321 Active Member

    Joined:
    Apr 6, 2014
    Messages:
    929
    Likes Received:
    27
    hummm okkkkk
     
  17. fgdsgdfsfsdfgdsq

    fgdsgdfsfsdfgdsq New Member

    Joined:
    Apr 17, 2017
    Messages:
    3
    Likes Received:
    0
  18. DopeHat

    DopeHat Active Member

    Joined:
    Sep 15, 2016
    Messages:
    351
    Likes Received:
    158
    that does happen sometimes you have to try a couple times depending on how big the file is. click on "standard download" instead of zip.
     
  19. mileyfan

    mileyfan Member

    Joined:
    Mar 3, 2014
    Messages:
    122
    Likes Received:
    3
  20. mariellisaa

    mariellisaa Member

    Joined:
    Jan 17, 2016
    Messages:
    141
    Likes Received:
    11