HDTV Miley Cyrus - Can't Be Tamed on David Letterman 1080i HDTV DD5.1 MPEG2-CtrlHD

Discussion in 'HD Live Performances' started by rgf72k, Aug 3, 2014.

  1. rgf72k

    rgf72k Founder Staff Member AdMiN Capper Uploader

    Joined:
    Oct 1, 2013
    Messages:
    1,075
    Likes Received:
    16,205
    [​IMG]

    General
    ID : 1 (0x1)
    Complete name : Miley Cyrus - Can't Be Tamed on David Letterman 1080i HDTV DD5.1 MPEG2-CtrlHD.ts
    Format : MPEG-TS
    File size : 539 MiB
    Duration : 4mn 15s
    Overall bit rate mode : Variable
    Overall bit rate : 17.7 Mbps
    Law rating : TV-14 (D)

    Video
    ID : 33 (0x21)
    Menu ID : 1 (0x1)
    Format : MPEG Video
    Format version : Version 2
    Format profile : [email protected]
    Format settings, BVOP : Yes
    Format settings, Matrix : Custom
    Format settings, GOP : M=3, N=15
    Codec ID : 2
    Duration : 4mn 15s
    Bit rate mode : Variable
    Bit rate : 16.4 Mbps
    Maximum bit rate : 17.1 Mbps
    Width : 1 920 pixels
    Height : 1 080 pixels
    Display aspect ratio : 16:9
    Frame rate : 29.970 fps
    Standard : Component
    Color space : YUV
    Chroma subsampling : 4:2:0
    Bit depth : 8 bits
    Scan type : Interlaced
    Scan order : Top Field First
    Compression mode : Lossy
    Bits/(Pixel*Frame) : 0.264
    Time code of first frame : 00:00:00;00
    Time code source : Group of pictures header
    Stream size : 501 MiB (93%)
    Color primaries : BT.709
    Transfer characteristics : BT.709
    Matrix coefficients : BT.709

    Audio
    ID : 36 (0x24)
    Menu ID : 1 (0x1)
    Format : AC-3
    Format/Info : Audio Coding 3
    Mode extension : CM (complete main)
    Format settings, Endianness : Big
    Codec ID : 129
    Duration : 4mn 15s
    Bit rate mode : Constant
    Bit rate : 384 Kbps
    Channel(s) : 6 channels
    Channel positions : Front: L C R, Side: L R, LFE
    Sampling rate : 48.0 KHz
    Bit depth : 16 bits
    Compression mode : Lossy
    Stream size : 11.7 MiB (2%)

    Text #1
    ID : 33 (0x21)-CC1
    Menu ID : 1 (0x1)
    Format : EIA-608
    Muxing mode : A/53 / DTVCC Transport
    Muxing mode, more info : Muxed in Video #1
    Duration : 4mn 15s
    Bit rate mode : Constant
    Stream size : 0.00 Byte (0%)

    Text #2
    ID : 33 (0x21)-1
    Menu ID : 1 (0x1)
    Format : EIA-708
    Muxing mode : A/53 / DTVCC Transport
    Muxing mode, more info : Muxed in Video #1
    Duration : 4mn 15s
    Bit rate mode : Constant
    Stream size : 0.00 Byte (0%)

    Text #3
    ID : 33 (0x21)-2
    Menu ID : 1 (0x1)
    Format : EIA-708
    Muxing mode : A/53 / DTVCC Transport
    Muxing mode, more info : Muxed in Video #1
    Duration : 4mn 15s
    Bit rate mode : Constant
    Stream size : 0.00 Byte (0%)


    Download:
    Hidden Content:
    You must either reply or click 'Like' to see the hidden information contained here.

    Capper: CtrlHD
     
  2. Loading...


  3. alex

    alex Well-Known Member

    Joined:
    Nov 21, 2013
    Messages:
    4,573
    Likes Received:
    366
    :victory:
     
  4. Maura

    Maura Well-Known Member

    Joined:
    Apr 7, 2014
    Messages:
    2,566
    Likes Received:
    80
    thanks
     
  5. ePhysician

    ePhysician Active Member

    Joined:
    Jan 12, 2014
    Messages:
    455
    Likes Received:
    128
    Thanks.
     
  6. multimediafm

    multimediafm Well-Known Member Donor

    Joined:
    Mar 27, 2014
    Messages:
    10,639
    Likes Received:
    633
  7. diego_123

    diego_123 Member

    Joined:
    Dec 15, 2013
    Messages:
    562
    Likes Received:
    11
    thank you so much.
     
  8. mvlmoraes

    mvlmoraes Well-Known Member Donor

    Joined:
    Nov 22, 2013
    Messages:
    1,745
    Likes Received:
    283
    thanks
     
  9. mvlmoraes

    mvlmoraes Well-Known Member Donor

    Joined:
    Nov 22, 2013
    Messages:
    1,745
    Likes Received:
    283
    THANKS
     
  10. BoogyWoogy

    BoogyWoogy Well-Known Member Donor

    Joined:
    Jan 9, 2014
    Messages:
    1,177
    Likes Received:
    6,300
    Thank you ! :)
     
  11. mikedreams

    mikedreams Well-Known Member Donor

    Joined:
    Nov 20, 2013
    Messages:
    440
    Likes Received:
    1,778
    Thanks a lot Ransel, for the good old Miley.
     
  12. franklele

    franklele Well-Known Member

    Joined:
    Nov 11, 2013
    Messages:
    2,164
    Likes Received:
    123
    thank you very much
     
  13. brian182

    brian182 Well-Known Member

    Joined:
    Oct 14, 2013
    Messages:
    1,853
    Likes Received:
    87
    thanks!
     
  14. rhea

    rhea Well-Known Member

    Joined:
    Jan 6, 2014
    Messages:
    6,939
    Likes Received:
    755
    thank you :)
     
  15. withcap

    withcap Well-Known Member

    Joined:
    Oct 29, 2013
    Messages:
    1,810
    Likes Received:
    113
    Thank you!
     
  16. Fabien Fournier

    Fabien Fournier Active Member

    Joined:
    Nov 14, 2013
    Messages:
    543
    Likes Received:
    61
    Thanks
     
  17. xtomekx

    xtomekx Member

    Joined:
    Jan 13, 2014
    Messages:
    602
    Likes Received:
    17
    thank you so much
     
  18. feet65

    feet65 Well-Known Member

    Joined:
    Nov 12, 2013
    Messages:
    1,315
    Likes Received:
    88
    very good
     
  19. sideshow_bob

    sideshow_bob Well-Known Member

    Joined:
    Dec 20, 2013
    Messages:
    3,026
    Likes Received:
    189
    thx 4 this
     
  20. mariellisaa

    mariellisaa Member

    Joined:
    Jan 17, 2016
    Messages:
    112
    Likes Received:
    10
    thank you so much
     
  21. qwert11

    qwert11 Active Member

    Joined:
    Nov 23, 2014
    Messages:
    1,063
    Likes Received:
    15
    thanks