HDTV Miley Cyrus - Can't Be Tamed (Dancing With The Stars) 720p HDTV 22 Mbps H.264-CtrlHD

Discussion in 'HD Live Performances' started by rgf72k, Apr 21, 2014.

  1. rgf72k

    rgf72k Founder Staff Member AdMiN

    Joined:
    Oct 1, 2013
    Messages:
    1,020
    Likes Received:
    15,358
    [​IMG]

    Code:
    General
    ID                                       : 1 (0x1)
    Complete name                            : Miley Cyrus - Can't Be Tamed (Dancing With The Stars) 720p HDTV 22 Mbps H.264 CtrlHD.ts
    Format                                   : MPEG-TS
    File size                                : 620 MiB
    Duration                                 : 3mn 38s
    Overall bit rate mode                    : Variable
    Overall bit rate                         : 23.8 Mbps
    Law rating                               : TV-PG (L)
    
    Video
    ID                                       : 110 (0x6E)
    Menu ID                                  : 1 (0x1)
    Format                                   : AVC
    Format/Info                              : Advanced Video Codec
    Format profile                           : [email protected]
    Format settings, CABAC                   : Yes
    Format settings, ReFrames                : 4 frames
    Codec ID                                 : 27
    Duration                                 : 3mn 38s
    Bit rate                                 : 22.4 Mbps
    Width                                    : 1 280 pixels
    Height                                   : 720 pixels
    Display aspect ratio                     : 16:9
    Frame rate                               : 59.940 fps
    Color space                              : YUV
    Chroma subsampling                       : 4:2:0
    Bit depth                                : 8 bits
    Scan type                                : Progressive
    Bits/(Pixel*Frame)                       : 0.405
    Stream size                              : 582 MiB (94%)
    Color primaries                          : BT.709
    Transfer characteristics                 : BT.709
    Matrix coefficients                      : BT.709
    
    Audio
    ID                                       : 111 (0x6F)
    Menu ID                                  : 1 (0x1)
    Format                                   : MPEG Audio
    Format version                           : Version 1
    Format profile                           : Layer 2
    Codec ID                                 : 3
    Duration                                 : 3mn 38s
    Bit rate mode                            : Constant
    Bit rate                                 : 256 Kbps
    Channel(s)                               : 2 channels
    Sampling rate                            : 48.0 KHz
    Compression mode                         : Lossy
    Stream size                              : 6.66 MiB (1%)
    Language                                 : English
    
    Text #1
    ID                                       : 110 (0x6E)-CC1
    Menu ID                                  : 1 (0x1)
    Format                                   : EIA-608
    Muxing mode                              : SCTE 128 / DTVCC Transport
    Muxing mode, more info                   : Muxed in Video #1
    Duration                                 : 3mn 38s
    Bit rate mode                            : Constant
    Stream size                              : 0.00 Byte (0%)
    
    Text #2
    ID                                       : 110 (0x6E)-1
    Menu ID                                  : 1 (0x1)
    Format                                   : EIA-708
    Muxing mode                              : SCTE 128 / DTVCC Transport
    Muxing mode, more info                   : Muxed in Video #1
    Duration                                 : 3mn 38s
    Bit rate mode                            : Constant
    Stream size                              : 0.00 Byte (0%)
    

    Download:
    Hidden Content:
    You must either reply or click 'Like' to see the hidden information contained here.

    Capper: CtrlHD
     
  2. Loading...


  3. Ank-hell

    Ank-hell nɪhɪl V . I . P.

    Joined:
    Dec 21, 2013
    Messages:
    1,478
    Likes Received:
    5,877
    Thxs
     
  4. 江雨燃双鱼

    江雨燃双鱼 Active Member

    Joined:
    Apr 5, 2014
    Messages:
    613
    Likes Received:
    38
  5. luo518999

    luo518999 Member

    Joined:
    Nov 6, 2013
    Messages:
    181
    Likes Received:
    3
  6. rhea

    rhea Well-Known Member

    Joined:
    Jan 6, 2014
    Messages:
    6,379
    Likes Received:
    606
    thank you so much
     
  7. ePhysician

    ePhysician Active Member

    Joined:
    Jan 12, 2014
    Messages:
    455
    Likes Received:
    128
    Thanks
     
  8. multimediafm

    multimediafm Well-Known Member Donor

    Joined:
    Mar 27, 2014
    Messages:
    9,471
    Likes Received:
    475
  9. withcap

    withcap Well-Known Member

    Joined:
    Oct 29, 2013
    Messages:
    1,648
    Likes Received:
    88
    Thank you!
     
  10. mmbento

    mmbento Member

    Joined:
    Jan 28, 2014
    Messages:
    289
    Likes Received:
    8
  11. brian182

    brian182 Well-Known Member

    Joined:
    Oct 14, 2013
    Messages:
    1,772
    Likes Received:
    67
  12. kiiwii

    kiiwii Member

    Joined:
    Oct 10, 2013
    Messages:
    241
    Likes Received:
    8
    Thank u :)
     
  13. Paula

    Paula Member

    Joined:
    Oct 30, 2013
    Messages:
    152
    Likes Received:
    24
    Thx soo much ; ):blackheart:
     
  14. skwal

    skwal Member

    Joined:
    Nov 18, 2013
    Messages:
    249
    Likes Received:
    9
  15. mvlmoraes

    mvlmoraes Well-Known Member Donor

    Joined:
    Nov 22, 2013
    Messages:
    1,694
    Likes Received:
    261
  16. Fabien Fournier

    Fabien Fournier Active Member

    Joined:
    Nov 14, 2013
    Messages:
    543
    Likes Received:
    61
    Thanks
     
  17. feet65

    feet65 Well-Known Member

    Joined:
    Nov 12, 2013
    Messages:
    1,242
    Likes Received:
    67
    very good
     
  18. atakano

    atakano Member

    Joined:
    Oct 6, 2014
    Messages:
    222
    Likes Received:
    3
    thanks for video
     
  19. Rafael Balbinotte

    Rafael Balbinotte Member Donor

    Joined:
    Sep 1, 2014
    Messages:
    231
    Likes Received:
    6
  20. wranth1

    wranth1 Member

    Joined:
    Jul 3, 2015
    Messages:
    127
    Likes Received:
    5
    thank you
     
  21. cristianleyv

    cristianleyv Member

    Joined:
    Oct 22, 2015
    Messages:
    132
    Likes Received:
    4
    me encanta miley <3