HDTV Mika - Mika Love Paris 12.27.2016 RAI2HD-1080i-Danixat-HDMania

Discussion in 'HD Live Performances' started by danixat, May 18, 2017.

  1. danixat

    danixat Katycat ^-^ Capper V . I . P. Donor

    Joined:
    Feb 23, 2014
    Messages:
    1,207
    Likes Received:
    8,263

    [​IMG]
    Code:
    General
    ID                             : 1 (0x1)
    Complete name                  : F:\Mika - Mika Love Paris 12.27.2016 RAI2HD-1080i-Danixat-HDMania.ts
    Format                         : MPEG-TS
    File size                      : 4.38 GiB
    Duration                       : 2h 0mn
    Overall bit rate mode          : Variable
    Overall bit rate               : 5 189 Kbps
    
    Video
    ID                             : 532 (0x214)
    Menu ID                        : 8592 (0x2190)
    Format                         : AVC
    Format/Info                    : Advanced Video Codec
    Format profile                 : High@L4
    Format settings, CABAC         : Yes
    Format settings, ReFrames      : 3 frames
    Format settings, GOP           : M=4, N=16
    Codec ID                       : 27
    Duration                       : 2h 0mn
    Bit rate                       : 4 480 Kbps
    Width                          : 1 920 pixels
    Height                         : 1 080 pixels
    Display aspect ratio           : 16:9
    Frame rate                     : 25.000 fps
    Color space                    : YUV
    Chroma subsampling             : 4:2:0
    Bit depth                      : 8 bits
    Scan type                      : MBAFF
    Scan order                     : Top Field First
    Bits/(Pixel*Frame)             : 0.086
    Stream size                    : 3.78 GiB (86%)
    
    Audio
    ID                             : 542 (0x21E)
    Menu ID                        : 8592 (0x2190)
    Format                         : AC-3
    Format/Info                    : Audio Coding 3
    Mode extension                 : CM (complete main)
    Format settings, Endianness    : Big
    Codec ID                       : 6
    Duration                       : 2h 0mn
    Bit rate mode                  : Constant
    Bit rate                       : 448 Kbps
    Channel(s)                     : 2 channels
    Channel positions              : Front: L R
    Sampling rate                  : 48.0 KHz
    Compression mode               : Lossy
    Delay relative to video        : -120ms
    Stream size                    : 387 MiB (9%)
    Language                       : Italian
    CAPPED BY ME :victory:

    Download:
    Hidden Content:
    You must either reply or click 'Like' to see the hidden information contained here.
    To see the video properly, please use MPC-HC
    [​IMG]
     
    EdGomes, rkn9, durrss and 7 others like this.
  2. Loading...


  3. Maura

    Maura Well-Known Member

    Joined:
    Apr 7, 2014
    Messages:
    3,353
    Likes Received:
    110
    thanks
     
  4. feet65

    feet65 Well-Known Member

    Joined:
    Nov 12, 2013
    Messages:
    1,753
    Likes Received:
    112
    very good
     
  5. rober18

    rober18 Active Member

    Joined:
    Sep 29, 2015
    Messages:
    430
    Likes Received:
    27
    thanks
     
  6. mvlmoraes

    mvlmoraes Well-Known Member Donor

    Joined:
    Nov 22, 2013
    Messages:
    3,374
    Likes Received:
    464
    thanks
     
  7. CELOBRAZiL

    CELOBRAZiL Well-Known Member Capper V . I . P. Donor

    Joined:
    Oct 2, 2013
    Messages:
    6,443
    Likes Received:
    20,377
    Thank you so much! :)
     
  8. cinimodyeslah123

    cinimodyeslah123 Member

    Joined:
    Apr 17, 2017
    Messages:
    104
    Likes Received:
    6
    thank you:)
     
  9. Extazy4u2

    Extazy4u2 Well-Known Member

    Joined:
    Jan 26, 2017
    Messages:
    2,737
    Likes Received:
    288
  10. glamasyou

    glamasyou Member

    Joined:
    Sep 23, 2016
    Messages:
    86
    Likes Received:
    5
    thanks
     
  11. educsarferreira

    educsarferreira Member

    Joined:
    Sep 3, 2016
    Messages:
    204
    Likes Received:
    21
  12. paulofelipp

    paulofelipp Active Member

    Joined:
    May 15, 2018
    Messages:
    833
    Likes Received:
    25
  13. estebania

    estebania Well-Known Member

    Joined:
    Dec 2, 2016
    Messages:
    467
    Likes Received:
    426
    thanks