HDTV Mika - Mika Love Paris 12.27.2016 RAI2HD-1080i-Danixat-HDMania

Discussion in 'HD Live Performances' started by danixat, May 18, 2017.

  1. danixat

    danixat Katycat ^-^ Capper V . I . P. Donor

    Joined:
    Feb 23, 2014
    Messages:
    1,205
    Likes Received:
    8,589

    [​IMG]
    Code:
    General
    ID                             : 1 (0x1)
    Complete name                  : F:\Mika - Mika Love Paris 12.27.2016 RAI2HD-1080i-Danixat-HDMania.ts
    Format                         : MPEG-TS
    File size                      : 4.38 GiB
    Duration                       : 2h 0mn
    Overall bit rate mode          : Variable
    Overall bit rate               : 5 189 Kbps
    
    Video
    ID                             : 532 (0x214)
    Menu ID                        : 8592 (0x2190)
    Format                         : AVC
    Format/Info                    : Advanced Video Codec
    Format profile                 : High@L4
    Format settings, CABAC         : Yes
    Format settings, ReFrames      : 3 frames
    Format settings, GOP           : M=4, N=16
    Codec ID                       : 27
    Duration                       : 2h 0mn
    Bit rate                       : 4 480 Kbps
    Width                          : 1 920 pixels
    Height                         : 1 080 pixels
    Display aspect ratio           : 16:9
    Frame rate                     : 25.000 fps
    Color space                    : YUV
    Chroma subsampling             : 4:2:0
    Bit depth                      : 8 bits
    Scan type                      : MBAFF
    Scan order                     : Top Field First
    Bits/(Pixel*Frame)             : 0.086
    Stream size                    : 3.78 GiB (86%)
    
    Audio
    ID                             : 542 (0x21E)
    Menu ID                        : 8592 (0x2190)
    Format                         : AC-3
    Format/Info                    : Audio Coding 3
    Mode extension                 : CM (complete main)
    Format settings, Endianness    : Big
    Codec ID                       : 6
    Duration                       : 2h 0mn
    Bit rate mode                  : Constant
    Bit rate                       : 448 Kbps
    Channel(s)                     : 2 channels
    Channel positions              : Front: L R
    Sampling rate                  : 48.0 KHz
    Compression mode               : Lossy
    Delay relative to video        : -120ms
    Stream size                    : 387 MiB (9%)
    Language                       : Italian
    CAPPED BY ME :victory:

    Download:
    Hidden Content:
    You must either reply or click 'Like' to see the hidden information contained here.
    To see the video properly, please use MPC-HC
    [​IMG]
     
  2. Loading...


  3. Maura

    Maura Well-Known Member

    Joined:
    Apr 7, 2014
    Messages:
    3,523
    Likes Received:
    116
    thanks
     
  4. feet65

    feet65 Well-Known Member

    Joined:
    Nov 12, 2013
    Messages:
    1,877
    Likes Received:
    122
    very good
     
  5. rober18

    rober18 Active Member

    Joined:
    Sep 29, 2015
    Messages:
    429
    Likes Received:
    27
    thanks
     
  6. mvlmoraes

    mvlmoraes Well-Known Member Donor

    Joined:
    Nov 22, 2013
    Messages:
    3,573
    Likes Received:
    513
    thanks
     
  7. CELOBRAZiL

    CELOBRAZiL Well-Known Member Capper V . I . P. Donor

    Joined:
    Oct 2, 2013
    Messages:
    7,226
    Likes Received:
    23,845
    Thank you so much! :)
     
  8. cinimodyeslah123

    cinimodyeslah123 Member

    Joined:
    Apr 17, 2017
    Messages:
    161
    Likes Received:
    13
    thank you:)
     
  9. Extazy4u2

    Extazy4u2 Well-Known Member

    Joined:
    Jan 26, 2017
    Messages:
    2,859
    Likes Received:
    308
  10. glamasyou

    glamasyou Member

    Joined:
    Sep 23, 2016
    Messages:
    95
    Likes Received:
    6
    thanks
     
  11. educsarferreira

    educsarferreira Member

    Joined:
    Sep 3, 2016
    Messages:
    223
    Likes Received:
    22
  12. henri_quex

    henri_quex Well-Known Member

    Joined:
    May 15, 2018
    Messages:
    1,334
    Likes Received:
    133
    thanks
     
  13. estebania

    estebania Well-Known Member

    Joined:
    Dec 2, 2016
    Messages:
    468
    Likes Received:
    468
    thanks
     
  14. Talys Cidreira

    Talys Cidreira Active Member

    Joined:
    Mar 9, 2015
    Messages:
    205
    Likes Received:
    32
  15. Eyk

    Eyk New Member

    Joined:
    Nov 4, 2016
    Messages:
    15
    Likes Received:
    0
    Thank you!
     
  16. memenome

    memenome Active Member

    Joined:
    Nov 20, 2015
    Messages:
    555
    Likes Received:
    52
    thanks
     
  17. gusmicheli

    gusmicheli Member

    Joined:
    Jul 8, 2019
    Messages:
    30
    Likes Received:
    1
    Gracias