Michael Jackson - You Are Not Alone (M6 Music HD-1080i-DD2.0)

Discussion in 'M6 HD' started by DETOX, Oct 2, 2015.

  1. DETOX

    DETOX K-POP fan ♡ V . I . P. Uploader

    Joined:
    Feb 20, 2014
    Messages:
    2,997
    Likes Received:
    20,120
    [​IMG]
    Code:
    General
    ID                                       : 1 (0x1)
    Complete name                            : Michael Jackson - You Are Not Alone (M6 Music HD-1080i-DD2.0).ts
    Format                                   : MPEG-TS
    File size                                : 369 MiB
    Duration                                 : 5mn 34s
    Overall bit rate mode                    : Variable
    Overall bit rate                         : 9 262 Kbps
    
    Video
    ID                                       : 162 (0xA2)
    Menu ID                                  : 1 (0x1)
    Format                                   : AVC
    Format/Info                              : Advanced Video Codec
    Format profile                           : [email protected]
    Format settings, CABAC                   : Yes
    Format settings, ReFrames                : 4 frames
    Codec ID                                 : 27
    Duration                                 : 5mn 34s
    Bit rate                                 : 8 546 Kbps
    Width                                    : 1 920 pixels
    Height                                   : 1 080 pixels
    Display aspect ratio                     : 16:9
    Frame rate                               : 25.000 fps
    Color space                              : YUV
    Chroma subsampling                       : 4:2:0
    Bit depth                                : 8 bits
    Scan type                                : MBAFF
    Scan order                               : Top Field First
    Bits/(Pixel*Frame)                       : 0.165
    Stream size                              : 340 MiB (92%)
    Color range                              : Limited
    Color primaries                          : BT.709
    Transfer characteristics                 : BT.709
    Matrix coefficients                      : BT.709
    
    Audio
    ID                                       : 90 (0x5A)
    Menu ID                                  : 1 (0x1)
    Format                                   : AC-3
    Format/Info                              : Audio Coding 3
    Format profile                           : Dolby Digital
    Mode extension                           : CM (complete main)
    Format settings, Endianness              : Big
    Codec ID                                 : 6
    Duration                                 : 5mn 34s
    Bit rate mode                            : Constant
    Bit rate                                 : 256 Kbps
    Channel(s)                               : 2 channels
    Channel positions                        : Front: L R
    Sampling rate                            : 48.0 KHz
    Bit depth                                : 16 bits
    Compression mode                         : Lossy
    Delay relative to video                  : 16ms
    Stream size                              : 10.2 MiB (3%)
    Language                                 : French
    Hidden Content:
    You must reply before you can see the hidden data contained here.
     
    lyana94, jack, CELOBRAZiL and 3 others like this.
  2. Loading...


  3. Puchacz93

    Puchacz93 Well-Known Member

    Joined:
    Feb 4, 2015
    Messages:
    1,206
    Likes Received:
    714
    Thank you.
     
  4. rhea

    rhea Well-Known Member

    Joined:
    Jan 6, 2014
    Messages:
    6,213
    Likes Received:
    516
    thank you so much :)
     
  5. lifevirgin

    lifevirgin Active Member

    Joined:
    Feb 15, 2014
    Messages:
    366
    Likes Received:
    31
    thx..
     
    Last edited by a moderator: Nov 25, 2015
  6. Vjeans

    Vjeans Well-Known Member

    Joined:
    May 10, 2014
    Messages:
    995
    Likes Received:
    3,200
    Thank you!
     
  7. Himperios

    Himperios Member

    Joined:
    Oct 11, 2015
    Messages:
    285
    Likes Received:
    18
    good.
     
    Last edited by a moderator: Nov 25, 2015
  8. theskulled

    theskulled Member

    Joined:
    Sep 15, 2014
    Messages:
    254
    Likes Received:
    4
    thank you ^^
     
  9. 江雨燃双鱼

    江雨燃双鱼 Active Member

    Joined:
    Apr 5, 2014
    Messages:
    613
    Likes Received:
    38
    thank you ^^
     
  10. wwepan

    wwepan Member

    Joined:
    Oct 21, 2015
    Messages:
    34
    Likes Received:
    0
    thx..
     
    Last edited by a moderator: Nov 25, 2015
  11. wwepan

    wwepan Member

    Joined:
    Oct 21, 2015
    Messages:
    34
    Likes Received:
    0
    Thank You
     
  12. Crusha

    Crusha Well-Known Member Capper

    Joined:
    Oct 15, 2014
    Messages:
    2,350
    Likes Received:
    2,415
    thank you
     
  13. mina

    mina Member

    Joined:
    Nov 24, 2015
    Messages:
    45
    Likes Received:
    1
    where is its file to download?
     
  14. dapape

    dapape Member

    Joined:
    Jun 9, 2014
    Messages:
    134
    Likes Received:
    1
    Thank you
     
  15. parbulo

    parbulo New Member

    Joined:
    Mar 17, 2016
    Messages:
    24
    Likes Received:
    0
    THANKS
     
  16. FlacoChileno

    FlacoChileno Member

    Joined:
    Jan 26, 2015
    Messages:
    386
    Likes Received:
    9
    Thank you! :)
     
  17. Jorge Barrionuevo

    Jorge Barrionuevo Well-Known Member

    Joined:
    Jun 9, 2015
    Messages:
    1,112
    Likes Received:
    397
    GRACIAS!
     
  18. braciata

    braciata Well-Known Member

    Joined:
    Oct 16, 2014
    Messages:
    377
    Likes Received:
    502
    thxxxxxxxxxxx
     
  19. jack

    jack Member

    Joined:
    Aug 6, 2016
    Messages:
    41
    Likes Received:
    1
    thanks
    tr
     
  20. kokomama

    kokomama Member

    Joined:
    Oct 15, 2015
    Messages:
    246
    Likes Received:
    6
    THANKS
     
  21. vuabip

    vuabip New Member

    Joined:
    Jan 1, 2017
    Messages:
    19
    Likes Received:
    1
    THANKS