Michael Jackson - Thriller (M6 Music HD-1080i-DD2.0)

Discussion in 'M6 HD' started by DETOX, Oct 2, 2015.

  1. Wesley Santos

    Wesley Santos New Member

    Joined:
    Aug 11, 2014
    Messages:
    28
    Likes Received:
    0
    ohhhh yeah
     
  2. Morune

    Morune New Member

    Joined:
    Feb 12, 2016
    Messages:
    2
    Likes Received:
    0
    thanks
     
  3. t2sampras

    t2sampras Member

    Joined:
    Nov 26, 2016
    Messages:
    35
    Likes Received:
    0
    the king of pop
     
  4. henryperu77

    henryperu77 Member

    Joined:
    Oct 18, 2016
    Messages:
    18
    Likes Received:
    104
    thank you
     
  5. zorgs777

    zorgs777 Member

    Joined:
    Feb 18, 2017
    Messages:
    67
    Likes Received:
    0
    Thank You!
     
  6. giga morane10

    giga morane10 Member

    Joined:
    Dec 10, 2016
    Messages:
    69
    Likes Received:
    17
    jhd[​IMG]
    Code:
    General
    ID                                       : 1 (0x1)
    Complete name                            : Michael Jackson - Thriller (M6 Music HD-1080i-DD2.0).ts
    Format                                   : MPEG-TS
    File size                                : 839 MiB
    Duration                                 : 13mn 30s
    Overall bit rate mode                    : Variable
    Overall bit rate                         : 8 675 Kbps
    
    Video
    ID                                       : 162 (0xA2)
    Menu ID                                  : 1 (0x1)
    Format                                   : AVC
    Format/Info                              : Advanced Video Codec
    Format profile                           : [email protected]
    Format settings, CABAC                   : Yes
    Format settings, ReFrames                : 4 frames
    Codec ID                                 : 27
    Duration                                 : 13mn 30s
    Bit rate                                 : 7 988 Kbps
    Width                                    : 1 920 pixels
    Height                                   : 1 080 pixels
    Display aspect ratio                     : 16:9
    Frame rate                               : 25.000 fps
    Color space                              : YUV
    Chroma subsampling                       : 4:2:0
    Bit depth                                : 8 bits
    Scan type                                : MBAFF
    Scan order                               : Top Field First
    Bits/(Pixel*Frame)                       : 0.154
    Stream size                              : 772 MiB (92%)
    Color range                              : Limited
    Color primaries                          : BT.709
    Transfer characteristics                 : BT.709
    Matrix coefficients                      : BT.709
    
    Audio
    ID                                       : 90 (0x5A)
    Menu ID                                  : 1 (0x1)
    Format                                   : AC-3
    Format/Info                              : Audio Coding 3
    Format profile                           : Dolby Digital
    Mode extension                           : CM (complete main)
    Format settings, Endianness              : Big
    Codec ID                                 : 6
    Duration                                 : 13mn 30s
    Bit rate mode                            : Constant
    Bit rate                                 : 256 Kbps
    Channel(s)                               : 2 channels
    Channel positions                        : Front: L R
    Sampling rate                            : 48.0 KHz
    Bit depth                                : 16 bits
    Compression mode                         : Lossy
    Delay relative to video                  : -24ms
    Stream size                              : 24.7 MiB (3%)
    Language                                 : French
    ***Hidden content cannot be quoted.***
    [/QUOTE]
     
    res5 likes this.
  7. MrCarlos5295

    MrCarlos5295 Member

    Joined:
    Mar 13, 2017
    Messages:
    65
    Likes Received:
    6
  8. looky

    looky Member

    Joined:
    Mar 22, 2017
    Messages:
    182
    Likes Received:
    4
    gracias.
     
  9. DiVenturas

    DiVenturas Well-Known Member

    Joined:
    Oct 21, 2015
    Messages:
    1,568
    Likes Received:
    25