Michael Jackson - Thriller (M6 Music HD-1080i-DD2.0)

Discussion in 'M6 HD' started by DETOX, Oct 2, 2015.

  1. DETOX

    DETOX K-POP fan ♡ VIXX▾T-ARA▾17▾WANNA ONE▾BTS▾SHINee...♡ V . I . P. Uploader

    Joined:
    Feb 20, 2014
    Messages:
    3,594
    Likes Received:
    25,654
    [​IMG]
    Code:
    General
    ID                                       : 1 (0x1)
    Complete name                            : Michael Jackson - Thriller (M6 Music HD-1080i-DD2.0).ts
    Format                                   : MPEG-TS
    File size                                : 839 MiB
    Duration                                 : 13mn 30s
    Overall bit rate mode                    : Variable
    Overall bit rate                         : 8 675 Kbps
    
    Video
    ID                                       : 162 (0xA2)
    Menu ID                                  : 1 (0x1)
    Format                                   : AVC
    Format/Info                              : Advanced Video Codec
    Format profile                           : [email protected]
    Format settings, CABAC                   : Yes
    Format settings, ReFrames                : 4 frames
    Codec ID                                 : 27
    Duration                                 : 13mn 30s
    Bit rate                                 : 7 988 Kbps
    Width                                    : 1 920 pixels
    Height                                   : 1 080 pixels
    Display aspect ratio                     : 16:9
    Frame rate                               : 25.000 fps
    Color space                              : YUV
    Chroma subsampling                       : 4:2:0
    Bit depth                                : 8 bits
    Scan type                                : MBAFF
    Scan order                               : Top Field First
    Bits/(Pixel*Frame)                       : 0.154
    Stream size                              : 772 MiB (92%)
    Color range                              : Limited
    Color primaries                          : BT.709
    Transfer characteristics                 : BT.709
    Matrix coefficients                      : BT.709
    
    Audio
    ID                                       : 90 (0x5A)
    Menu ID                                  : 1 (0x1)
    Format                                   : AC-3
    Format/Info                              : Audio Coding 3
    Format profile                           : Dolby Digital
    Mode extension                           : CM (complete main)
    Format settings, Endianness              : Big
    Codec ID                                 : 6
    Duration                                 : 13mn 30s
    Bit rate mode                            : Constant
    Bit rate                                 : 256 Kbps
    Channel(s)                               : 2 channels
    Channel positions                        : Front: L R
    Sampling rate                            : 48.0 KHz
    Bit depth                                : 16 bits
    Compression mode                         : Lossy
    Delay relative to video                  : -24ms
    Stream size                              : 24.7 MiB (3%)
    Language                                 : French
    Hidden Content:
    You must reply before you can see the hidden data contained here.
     
  2. Loading...


  3. Puchacz93

    Puchacz93 Well-Known Member

    Joined:
    Feb 4, 2015
    Messages:
    1,210
    Likes Received:
    728
    Thank you.
     
  4. rhea

    rhea Well-Known Member

    Joined:
    Jan 6, 2014
    Messages:
    6,839
    Likes Received:
    746
    thank you so much :)
     
  5. lifevirgin

    lifevirgin Active Member

    Joined:
    Feb 15, 2014
    Messages:
    434
    Likes Received:
    34
    Thanks!
     
  6. Vjeans

    Vjeans Well-Known Member V . I . P.

    Joined:
    May 10, 2014
    Messages:
    1,099
    Likes Received:
    3,503
    Thank you!
     
  7. Himperios

    Himperios Member

    Joined:
    Oct 11, 2015
    Messages:
    286
    Likes Received:
    18
    good.
     
    Last edited by a moderator: Nov 23, 2015
  8. djdaddydog

    djdaddydog New Member

    Joined:
    Oct 21, 2015
    Messages:
    1
    Likes Received:
    0
    thanks!!!!
     
    Last edited by a moderator: Nov 23, 2015
  9. Crusha

    Crusha Well-Known Member Capper V . I . P.

    Joined:
    Oct 15, 2014
    Messages:
    2,358
    Likes Received:
    2,626
    thank you
     
  10. Attention

    Attention Active Member

    Joined:
    Nov 30, 2013
    Messages:
    563
    Likes Received:
    31
  11. mina

    mina Member

    Joined:
    Nov 24, 2015
    Messages:
    48
    Likes Received:
    1
    I love Mihaelllllllllllllllllllllllllllllllllllllllllll
     
  12. Spartan

    Spartan Member

    Joined:
    Dec 8, 2015
    Messages:
    42
    Likes Received:
    4
    thanks
     
  13. Godwinson

    Godwinson Active Member

    Joined:
    Oct 23, 2014
    Messages:
    394
    Likes Received:
    60
    Thanks.
     
  14. williamcaracas

    williamcaracas Member

    Joined:
    Nov 29, 2013
    Messages:
    164
    Likes Received:
    2
    thank you this is a classic
     
  15. fullhdv

    fullhdv Member

    Joined:
    Jan 20, 2016
    Messages:
    98
    Likes Received:
    4
    wooooow
     
  16. ors72

    ors72 New Member

    Joined:
    Feb 26, 2016
    Messages:
    18
    Likes Received:
    0
    thank you
     
  17. parbulo

    parbulo New Member

    Joined:
    Mar 17, 2016
    Messages:
    24
    Likes Received:
    1
    GRACIAS THANKS
     
  18. FlacoChileno

    FlacoChileno Member

    Joined:
    Jan 26, 2015
    Messages:
    466
    Likes Received:
    16
    Awsome thank you! :)
     
  19. royevilone

    royevilone Well-Known Member Donor

    Joined:
    Feb 16, 2016
    Messages:
    1,032
    Likes Received:
    684
    Thank you!
     
  20. royevilone

    royevilone Well-Known Member Donor

    Joined:
    Feb 16, 2016
    Messages:
    1,032
    Likes Received:
    684
    Thanks!
     
  21. gayway

    gayway Active Member

    Joined:
    Mar 10, 2016
    Messages:
    902
    Likes Received:
    60
    Thank You!