SDTV Michael Jackson - Footage You Were Never Meant to See

Discussion in 'Interviews / TV shows / Others' started by nikshell29, Jan 24, 2021.

  1. nikshell29

    nikshell29 Well-Known Member

    Joined:
    Dec 29, 2020
    Messages:
    599
    Likes Received:
    715
    VHS RIP
    [​IMG]
    This new unedited footage tapped by Michael Jackson's team in Neverland, offers a true representation of the controversial TV special "Living with Michael Jackson" of Martin Bashir, very far from the twisted initial broadcast.

    MediaInfo:
    Code:
    General
    Complete name                  : C:\Users\niksh\Downloads\Michael Jackson's Footage You Were Never Meant to See.mpg
    Format                         : MPEG-PS
    File size                      : 2.16 GiB
    Duration                       : 1 h 23 min
    Overall bit rate mode          : Constant
    Overall bit rate               : 3 721 kb/s
    
    Video
    ID                             : 224 (0xE0)
    Format                         : MPEG Video
    Format version                 : Version 2
    Format profile                 : Main@Main
    Format settings, BVOP          : No
    Format settings, Matrix        : Default
    Format settings, GOP           : Variable
    Duration                       : 1 h 23 min
    Bit rate mode                  : Constant
    Bit rate                       : 3 500 kb/s
    Width                          : 640 pixels
    Height                         : 480 pixels
    Display aspect ratio           : 4:3
    Frame rate                     : 29.970 (30000/1001) FPS
    Standard                       : PAL
    Color space                    : YUV
    Chroma subsampling             : 4:2:0
    Bit depth                      : 8 bits
    Scan type                      : Progressive
    Compression mode               : Lossy
    Bits/(Pixel*Frame)             : 0.380
    Time code of first frame       : 00:00:00:00
    Time code source               : Group of pictures header
    GOP, Open/Closed               : Closed
    Stream size                    : 2.04 GiB (95%)
    Color primaries                : BT.601 PAL
    Transfer characteristics       : BT.470 System B/G
    Matrix coefficients            : BT.470 System B/G
    
    Audio
    ID                             : 192 (0xC0)
    Format                         : MPEG Audio
    Format version                 : Version 1
    Format profile                 : Layer 2
    Duration                       : 1 h 23 min
    Bit rate mode                  : Constant
    Bit rate                       : 128 kb/s
    Channel(s)                     : 2 channels
    Sampling rate                  : 44.1 kHz
    Frame rate                     : 38.281 FPS (1152 SPF)
    Compression mode               : Lossy
    Delay relative to video        : -33 ms
    Stream size                    : 76.0 MiB (3%)
    
    Menu
    
    
    DONWLOAD:
    Hidden Content:
    You must either reply or click 'Like' to see the hidden information contained here.
     
    Last edited: Feb 27, 2021
  2. Loading...


  3. josedavidhcu

    josedavidhcu Active Member

    Joined:
    Jun 23, 2016
    Messages:
    868
    Likes Received:
    174
    thanks
     
    nikshell29 likes this.
  4. Scherzyboy

    Scherzyboy Super Moderator Staff Member Super Moderator V . I . P. Uploader Archiver Donor

    Joined:
    May 14, 2015
    Messages:
    1,519
    Likes Received:
    2,755
    Thank you
     
    nikshell29 likes this.
  5. SwifterThanYou

    SwifterThanYou Member

    Joined:
    Feb 5, 2015
    Messages:
    49
    Likes Received:
    2
    thank you so much
     
    nikshell29 likes this.
  6. Vjeans

    Vjeans Well-Known Member V . I . P.

    Joined:
    May 10, 2014
    Messages:
    2,019
    Likes Received:
    5,175
    Thank you
     
    nikshell29 likes this.
  7. nikshell29

    nikshell29 Well-Known Member

    Joined:
    Dec 29, 2020
    Messages:
    599
    Likes Received:
    715
    Can you re up Michael Jackson in Moscow?
     
  8. ProResOrgasm420

    ProResOrgasm420 Encoder

    Joined:
    Aug 26, 2020
    Messages:
    375
    Likes Received:
    9
    vcvxcv
     
    nikshell29 likes this.
  9. amscity

    amscity Active Member

    Joined:
    Feb 17, 2019
    Messages:
    678
    Likes Received:
    26
    fvfrvre
     
    nikshell29 likes this.
  10. micko316

    micko316 New Member

    Joined:
    Feb 13, 2021
    Messages:
    14
    Likes Received:
    3
    amazing
     
    nikshell29 likes this.
  11. russelxpidot

    russelxpidot Member

    Joined:
    Sep 29, 2020
    Messages:
    298
    Likes Received:
    20
    thanks!
     
    nikshell29 likes this.
  12. Rebelde25

    Rebelde25 Active Member

    Joined:
    Sep 30, 2020
    Messages:
    673
    Likes Received:
    56
    Thanks
     
    nikshell29 likes this.
  13. andavas

    andavas Member

    Joined:
    Apr 8, 2016
    Messages:
    507
    Likes Received:
    19
    Thanks
     
    nikshell29 likes this.
  14. nikshell29

    nikshell29 Well-Known Member

    Joined:
    Dec 29, 2020
    Messages:
    599
    Likes Received:
    715
    i found dvd rip, soon i'll upload it, much better quality and sound! ​