Michael Jackson - Billie Jean (MTV.HD.LA.1080i.DD2.0).-Crusha

Discussion in 'MTV HD' started by Crusha, Aug 4, 2016.

  1. Crusha

    Crusha Well-Known Member Capper V . I . P.

    Joined:
    Oct 15, 2014
    Messages:
    2,499
    Likes Received:
    3,598
    [​IMG]

    Mediainfo

    Code:
    General
    ID                             : 1 (0x1)
    Complete name                  : Michael Jackson - Billie Jean (MTV.HD.LA.1080i.DD2.0).-Crusha.ts
    Format                         : MPEG-TS
    File size                      : 179 MiB
    Duration                       : 4mn 54s
    Overall bit rate mode          : Variable
    Overall bit rate               : 5 108 Kbps
    
    Video
    ID                             : 4472 (0x1178)
    Menu ID                        : 1893 (0x765)
    Format                         : AVC
    Format/Info                    : Advanced Video Codec
    Format profile                 : High@L4
    Format settings, CABAC         : Yes
    Format settings, ReFrames      : 4 frames
    Codec ID                       : 27
    Duration                       : 4mn 53s
    Bit rate                       : 4 468 Kbps
    Width                          : 1 920 pixels
    Height                         : 1 080 pixels
    Display aspect ratio           : 16:9
    Frame rate                     : 29.970 fps
    Color space                    : YUV
    Chroma subsampling             : 4:2:0
    Bit depth                      : 8 bits
    Scan type                      : MBAFF
    Scan order                     : Top Field First
    Bits/(Pixel*Frame)             : 0.072
    Stream size                    : 157 MiB (87%)
    Color range                    : Limited
    Color primaries                : BT.709
    Transfer characteristics       : BT.709
    Matrix coefficients            : BT.709
    
    Audio
    ID                             : 5014 (0x1396)
    Menu ID                        : 1893 (0x765)
    Format                         : AC-3
    Format/Info                    : Audio Coding 3
    Mode extension                 : CM (complete main)
    Format settings, Endianness    : Big
    Codec ID                       : 6
    Duration                       : 4mn 54s
    Bit rate mode                  : Constant
    Bit rate                       : 384 Kbps
    Channel(s)                     : 2 channels
    Channel positions              : Front: L R
    Sampling rate                  : 48.0 KHz
    Bit depth                      : 16 bits
    Compression mode               : Lossy
    Delay relative to video        : -100ms
    Stream size                    : 13.5 MiB (8%)
    Language                       : English
    
    
    Hidden Content:
    You must reply before you can see the hidden data contained here.
    Password: crusha
     
    Satya, ellias2601, tsraywot and 7 others like this.
  2. Loading...


  3. TrendMusic

    TrendMusic Well-Known Member

    Joined:
    Oct 7, 2013
    Messages:
    2,060
    Likes Received:
    220
  4. CELOBRAZiL

    CELOBRAZiL Well-Known Member Capper V . I . P. Donor

    Joined:
    Oct 2, 2013
    Messages:
    7,976
    Likes Received:
    27,821
    Thank you so much! :)
     
  5. nickiexclusive

    nickiexclusive Video Maniac V . I . P. Uploader

    Joined:
    Sep 23, 2014
    Messages:
    3,014
    Likes Received:
    15,410
  6. Eslam Abosaed

    Eslam Abosaed Member

    Joined:
    Jan 27, 2015
    Messages:
    348
    Likes Received:
    11
    Thank you so much
     
  7. rhea

    rhea Well-Known Member

    Joined:
    Jan 6, 2014
    Messages:
    10,086
    Likes Received:
    1,796
    thank you
     
  8. tapions

    tapions Well-Known Member

    Joined:
    Aug 30, 2016
    Messages:
    1,176
    Likes Received:
    116
    gracias
     
  9. Fresh strawberries

    Fresh strawberries Member

    Joined:
    Jun 14, 2016
    Messages:
    118
    Likes Received:
    8
    Michael Jackson's songs will always be with us forever in our hearts
     
  10. yilder1

    yilder1 Active Member

    Joined:
    Aug 25, 2016
    Messages:
    851
    Likes Received:
    153
    THANKS
     
  11. guiwstj

    guiwstj Member

    Joined:
    Oct 7, 2016
    Messages:
    223
    Likes Received:
    4
    thanks
     
  12. BillyTaylor

    BillyTaylor Member

    Joined:
    Nov 27, 2016
    Messages:
    301
    Likes Received:
    9
  13. Adam99

    Adam99 Member

    Joined:
    Aug 16, 2016
    Messages:
    125
    Likes Received:
    1
    thanks
     
  14. Frogman12

    Frogman12 Member

    Joined:
    Mar 28, 2017
    Messages:
    124
    Likes Received:
    9
  15. DiVenturas

    DiVenturas Well-Known Member

    Joined:
    Oct 21, 2015
    Messages:
    3,377
    Likes Received:
    206
  16. John fresco

    John fresco :v

    Joined:
    Apr 23, 2017
    Messages:
    180
    Likes Received:
    50
  17. lim

    lim Well-Known Member

    Joined:
    Nov 8, 2013
    Messages:
    2,512
    Likes Received:
    83
    thanks
     
  18. lyana94

    lyana94 Well-Known Member

    Joined:
    Jul 5, 2017
    Messages:
    1,710
    Likes Received:
    63
    thanks
     
  19. skay13oct

    skay13oct Member

    Joined:
    Aug 17, 2017
    Messages:
    108
    Likes Received:
    2
  20. erroljr1977

    erroljr1977 Active Member

    Joined:
    Apr 18, 2017
    Messages:
    503
    Likes Received:
    26
    thansd
     
  21. losti

    losti New Member

    Joined:
    May 22, 2014
    Messages:
    9
    Likes Received:
    0
    Thank you