Metallica - The Unforgiven (MTVPulse-1080i-DD2.0)-Olgold

Discussion in 'MTV PULSE HD' started by Olgold, Aug 19, 2015.

  1. Olgold

    Olgold Well-Known Member Capper

    Joined:
    Aug 19, 2015
    Messages:
    435
    Likes Received:
    1,487
    [​IMG]
    General
    Format : MPEG-TS
    File size : 214 MiB
    Duration : 6mn 21s
    Overall bit rate mode : Variable
    Overall bit rate : 4 709 Kbps

    Video
    Format : AVC
    Format/Info : Advanced Video Codec
    Format profile : [email protected]
    Format settings, CABAC : Yes
    Format settings, ReFrames : 4 frames
    Duration : 6mn 21s
    Bit rate : 4 218 Kbps
    Width : 1 920 pixels
    Height : 1 080 pixels
    Display aspect ratio : 16:9
    Frame rate : 25.000 fps
    Standard : Component
    Color space : YUV
    Chroma subsampling : 4:2:0
    Bit depth : 8 bits
    Scan type : MBAFF
    Scan order : Top Field First
    Bits/(Pixel*Frame) : 0.081
    Stream size : 192 MiB (90%)
    Color range : Limited

    Audio
    Format : AC-3
    Format/Info : Audio Coding 3
    Mode extension : CM (complete main)
    Format settings, Endianness : Big
    Duration : 6mn 21s
    Bit rate mode : Constant
    Bit rate : 256 Kbps
    Channel(s) : 2 channels
    Channel positions : Front: L R
    Sampling rate : 48.0 KHz
    Compression mode : Lossy
    Delay relative to video : 32ms
    Stream size : 11.6 MiB (5%)
    Language : French
    Language, more info : Clean effects

    Hidden Content:
    You must reply before you can see the hidden data contained here.
     
  2. rhea

    rhea Well-Known Member

    Joined:
    Jan 6, 2014
    Messages:
    5,578
    Likes Received:
    340
    thanks a lot
     
  3. lpplus

    lpplus Well-Known Member

    Joined:
    Sep 28, 2014
    Messages:
    680
    Likes Received:
    1,607
    Thank you
     
  4. Crusha

    Crusha Well-Known Member Capper

    Joined:
    Oct 15, 2014
    Messages:
    2,350
    Likes Received:
    2,221
    thank you
     
  5. furkan

    furkan Member

    Joined:
    Oct 9, 2015
    Messages:
    235
    Likes Received:
    5
    thnks youuuu
     
  6. nolynexor88

    nolynexor88 Active Member

    Joined:
    Sep 29, 2015
    Messages:
    913
    Likes Received:
    35
     
  7. Attention

    Attention Active Member

    Joined:
    Nov 30, 2013
    Messages:
    564
    Likes Received:
    29
  8. Flaxdevil

    Flaxdevil Member

    Joined:
    May 25, 2014
    Messages:
    210
    Likes Received:
    6
    rock and roll!
     
  9. J_Pablo

    J_Pablo Active Member

    Joined:
    Nov 27, 2013
    Messages:
    468
    Likes Received:
    85
    Great song great band... thank you so much!
     
  10. slash

    slash Member

    Joined:
    Mar 17, 2016
    Messages:
    63
    Likes Received:
    1
    thanks
     
  11. cero

    cero Member

    Joined:
    Nov 1, 2013
    Messages:
    102
    Likes Received:
    0
    excelent song
     
  12. vaci

    vaci Member

    Joined:
    Jul 16, 2016
    Messages:
    79
    Likes Received:
    2
    Thank you
     
  13. daronmalakian

    daronmalakian Member

    Joined:
    Sep 30, 2014
    Messages:
    251
    Likes Received:
    10
    Thx so much
     
  14. zzrlisa

    zzrlisa Member

    Joined:
    Dec 4, 2015
    Messages:
    211
    Likes Received:
    20
    thanks
     
  15. danicoteca

    danicoteca Member

    Joined:
    Sep 10, 2016
    Messages:
    160
    Likes Received:
    17
  16. rimisark

    rimisark Member

    Joined:
    Jul 22, 2016
    Messages:
    141
    Likes Received:
    2
    hewhewahahgw
     
  17. jms_salta

    jms_salta Member

    Joined:
    Nov 9, 2014
    Messages:
    33
    Likes Received:
    0
    thank you
     
  18. revilo18

    revilo18 Well-Known Member

    Joined:
    May 26, 2016
    Messages:
    1,482
    Likes Received:
    61
    THANNKKK