Meghan Trainor - NO (VEVOtv HDTV-1080i 30Mbps) Danixat-HDMania

Discussion in 'VEVOtv' started by danixat, Mar 25, 2016.

  1. danixat

    danixat Katycat ^-^ Capper V . I . P. Donor

    Joined:
    Feb 23, 2014
    Messages:
    1,198
    Likes Received:
    7,040
    [​IMG]
    [​IMG]
    [​IMG]
    [​IMG]
    Code:
    General
    ID                             : 1 (0x1)
    Complete name                  : K:\Meghan Trainor - NO (VEVOtv HDTV-1080i 30Mbps) Danixat-HDMania.ts
    Format                         : MPEG-TS
    File size                      : 801 MiB
    Duration                       : 3mn 42s
    Overall bit rate mode          : Variable
    Overall bit rate               : 30.2 Mbps
    
    Video
    ID                             : 100 (0x64)
    Menu ID                        : 2 (0x2)
    Format                         : AVC
    Format/Info                    : Advanced Video Codec
    Format profile                 : [email protected]
    Format settings, CABAC         : Yes
    Format settings, ReFrames      : 2 frames
    Codec ID                       : 27
    Duration                       : 3mn 42s
    Bit rate mode                  : Variable
    Bit rate                       : 28.5 Mbps
    Maximum bit rate               : 15.0 Mbps
    Width                          : 1 920 pixels
    Height                         : 1 080 pixels
    Display aspect ratio           : 16:9
    Frame rate                     : 25.000 fps
    Color space                    : YUV
    Chroma subsampling             : 4:2:0
    Bit depth                      : 8 bits
    Scan type                      : MBAFF
    Bits/(Pixel*Frame)             : 0.550
    Stream size                    : 756 MiB (94%)
    
    Audio
    ID                             : 101 (0x65)
    Menu ID                        : 2 (0x2)
    Format                         : AAC
    Format/Info                    : Advanced Audio Codec
    Format version                 : Version 4
    Format profile                 : LC
    Muxing mode                    : ADTS
    Codec ID                       : 15
    Duration                       : 3mn 42s
    Bit rate mode                  : Variable
    Bit rate                       : 208 Kbps
    Channel(s)                     : 2 channels
    Channel positions              : Front: L R
    Sampling rate                  : 48.0 KHz
    Compression mode               : Lossy
    Delay relative to video        : -5ms
    Stream size                    : 5.52 MiB (1%)

    [​IMG]

    Download:
    Hidden Content:
    You must either reply or click 'Like' to see the hidden information contained here.
    CAPPED BY ME :victory:
     
    NiceBoy, Sayanjana, Kirsche and 7 others like this.
  2. Loading...


  3. nolynexor88

    nolynexor88 Well-Known Member

    Joined:
    Sep 29, 2015
    Messages:
    1,119
    Likes Received:
    69
    thank you :)
     
  4. TrendMusic

    TrendMusic Well-Known Member

    Joined:
    Oct 7, 2013
    Messages:
    1,286
    Likes Received:
    85
  5. Mikki91

    Mikki91 Member

    Joined:
    Oct 29, 2016
    Messages:
    262
    Likes Received:
    3
    thanks a lot
     
  6. cesar josep liuses yesus

    cesar josep liuses yesus Member

    Joined:
    Dec 22, 2016
    Messages:
    123
    Likes Received:
    1
  7. aabbccd01

    aabbccd01 Member

    Joined:
    Mar 23, 2017
    Messages:
    103
    Likes Received:
    4
    Perfect. THX.