Meghan Trainor - Better When I'm Dancin' (VEVOtv HDTV-1080i 30Mbps) Danixat-HDMania

Discussion in 'VEVOtv' started by danixat, Mar 25, 2016.

  1. danixat

    danixat Katycat ^-^ Capper V . I . P. Donor

    Joined:
    Feb 23, 2014
    Messages:
    1,197
    Likes Received:
    6,919
    [​IMG]
    [​IMG]
    [​IMG]
    [​IMG]
    Code:
    General
    ID                             : 1 (0x1)
    Complete name                  : K:\Meghan Trainor - Better When I'm Dancin' (VEVOtv HDTV-1080i 30Mbps) Danixat-HDMania.ts
    Format                         : MPEG-TS
    File size                      : 642 MiB
    Duration                       : 2mn 55s
    Overall bit rate mode          : Variable
    Overall bit rate               : 30.6 Mbps
    
    Video
    ID                             : 100 (0x64)
    Menu ID                        : 2 (0x2)
    Format                         : AVC
    Format/Info                    : Advanced Video Codec
    Format profile                 : [email protected]
    Format settings, CABAC         : Yes
    Format settings, ReFrames      : 2 frames
    Codec ID                       : 27
    Duration                       : 2mn 55s
    Bit rate mode                  : Variable
    Bit rate                       : 28.8 Mbps
    Maximum bit rate               : 30.0 Mbps
    Width                          : 1 920 pixels
    Height                         : 1 080 pixels
    Display aspect ratio           : 16:9
    Frame rate                     : 25.000 fps
    Color space                    : YUV
    Chroma subsampling             : 4:2:0
    Bit depth                      : 8 bits
    Scan type                      : Interlaced
    Bits/(Pixel*Frame)             : 0.556
    Stream size                    : 604 MiB (94%)
    
    Audio
    ID                             : 101 (0x65)
    Menu ID                        : 2 (0x2)
    Format                         : AAC
    Format/Info                    : Advanced Audio Codec
    Format version                 : Version 4
    Format profile                 : LC
    Muxing mode                    : ADTS
    Codec ID                       : 15
    Duration                       : 2mn 56s
    Bit rate mode                  : Variable
    Bit rate                       : 228 Kbps
    Channel(s)                     : 2 channels
    Channel positions              : Front: L R
    Sampling rate                  : 48.0 KHz
    Compression mode               : Lossy
    Delay relative to video        : -360ms
    Stream size                    : 4.79 MiB (1%)

    [​IMG]

    Download:
    Hidden Content:
    You must either reply or click 'Like' to see the hidden information contained here.
    CAPPED BY ME :victory:
     
  2. Loading...


  3. luke72

    luke72 Member

    Joined:
    Dec 31, 2014
    Messages:
    380
    Likes Received:
    4
    thanks for the post
     
  4. faz

    faz Member

    Joined:
    Jan 9, 2014
    Messages:
    269
    Likes Received:
    2
    thank you...
     
  5. johnnosolo

    johnnosolo Member

    Joined:
    Dec 18, 2015
    Messages:
    275
    Likes Received:
    5
  6. seregil

    seregil Member

    Joined:
    Sep 5, 2014
    Messages:
    103
    Likes Received:
    1
    thanks