Medina - Kl. 10 (MasterRip-1080p)

Discussion in 'MASTER & MASTER RIP' started by vitalya3, May 25, 2019.

  1. vitalya3

    vitalya3 Well-Known Member

    Joined:
    Dec 4, 2017
    Messages:
    1,343
    Likes Received:
    1,583
    [​IMG]

    Code:
    General
    Complete name                  : C:\Users\asus\Desktop\Medina  - Kl. 10.mov
    Format                         : MPEG-4
    Format profile                 : Base Media / Version 2
    Codec ID                       : mp42 (mp42/isom/avc1)
    File size                      : 305 MiB
    Duration                       : 3 min 47 s
    Overall bit rate mode          : Variable
    Overall bit rate               : 11.3 Mb/s
    Writing application            : TMPGEnc Video Mastering Works 5 Version. 5.0.6.38
    
    Video
    ID                             : 2
    Format                         : AVC
    Format/Info                    : Advanced Video Codec
    Format profile                 : High@L4
    Format settings                : CABAC / 3 Ref Frames
    Format settings, CABAC         : Yes
    Format settings, ReFrames      : 3 frames
    Codec ID                       : avc1
    Codec ID/Info                  : Advanced Video Coding
    Duration                       : 3 min 47 s
    Bit rate mode                  : Variable
    Bit rate                       : 11.0 Mb/s
    Maximum bit rate               : 25.0 Mb/s
    Width                          : 1 920 pixels
    Height                         : 1 080 pixels
    Display aspect ratio           : 16:9
    Frame rate mode                : Constant
    Frame rate                     : 25.000 FPS
    Color space                    : YUV
    Chroma subsampling             : 4:2:0
    Bit depth                      : 8 bits
    Scan type                      : Progressive
    Bits/(Pixel*Frame)             : 0.212
    Stream size                    : 298 MiB (98%)
    Writing library                : x264 core 114
    Encoding settings              : cabac=1 / ref=3 / deblock=1:0:0 / analyse=0x3:0x113 / me=hex / subme=4 / psy=1 / psy_rd=0.00:0.00 / mixed_ref=0 / me_range=16 / chroma_me=1 / trellis=1 / 8x8dct=1 / cqm=2 / deadzone=21,11 / fast_pskip=1 / chroma_qp_offset=0 / threads=3 / sliced_threads=0 / slices=1 / nr=0 / decimate=1 / interlaced=0 / constrained_intra=0 / bframes=3 / b_pyramid=0 / b_adapt=1 / b_bias=0 / direct=1 / weightb=1 / open_gop=0 / weightp=1 / keyint=250 / keyint_min=25 / scenecut=40 / intra_refresh=0 / rc_lookahead=20 / rc=2pass / mbtree=1 / bitrate=11000 / ratetol=1.0 / qcomp=0.60 / qpmin=1 / qpmax=69 / qpstep=4 / cplxblur=20.0 / qblur=0.5 / vbv_maxrate=25000 / vbv_bufsize=24985 / nal_hrd=vbr / ip_ratio=1.40 / aq=1:1.00
    Color range                    : Limited
    Color primaries                : BT.709
    Transfer characteristics       : BT.709
    Matrix coefficients            : BT.709
    Codec configuration box        : avcC
    
    Audio
    ID                             : 1
    Format                         : AAC Main
    Format/Info                    : Advanced Audio Codec
    Codec ID                       : mp4a-40-1
    Duration                       : 3 min 47 s
    Bit rate mode                  : Variable
    Bit rate                       : 256 kb/s
    Maximum bit rate               : 576 kb/s
    Channel(s)                     : 2 channels
    Channel layout                 : L R
    Sampling rate                  : 48.0 kHz
    Frame rate                     : 46.875 FPS (1024 SPF)
    Compression mode               : Lossy
    Stream size                    : 6.94 MiB (2%)
    
    
    Hidden Content:
    You must either reply or click 'Like' to see the hidden information contained here.
     
    tf135 and DiVenturas like this.
  2. Loading...


  3. nolynexor88

    nolynexor88 Well-Known Member

    Joined:
    Sep 29, 2015
    Messages:
    1,812
    Likes Received:
    151
    Thank you
     
  4. DiVenturas

    DiVenturas Well-Known Member

    Joined:
    Oct 21, 2015
    Messages:
    3,353
    Likes Received:
    203
    Thanks!
     
  5. ecrider1000

    ecrider1000 Active Member

    Joined:
    Jun 25, 2016
    Messages:
    674
    Likes Received:
    34
  6. allynat

    allynat Well-Known Member

    Joined:
    Dec 25, 2017
    Messages:
    1,091
    Likes Received:
    38
    thanks
     
  7. tom_528

    tom_528 Member

    Joined:
    Jan 13, 2019
    Messages:
    175
    Likes Received:
    2
    nice song
     
  8. Slyckaer

    Slyckaer Member

    Joined:
    Oct 18, 2015
    Messages:
    95
    Likes Received:
    3
    tk you
     
  9. sclubroca

    sclubroca Member

    Joined:
    Feb 20, 2016
    Messages:
    773
    Likes Received:
    24
  10. mastodontosaurio

    mastodontosaurio Well-Known Member

    Joined:
    Sep 29, 2015
    Messages:
    1,441
    Likes Received:
    85
    gracias por el aporte
     
  11. Gonhewitt

    Gonhewitt Member

    Joined:
    May 24, 2015
    Messages:
    317
    Likes Received:
    6
  12. drranielr

    drranielr Member

    Joined:
    Jan 18, 2018
    Messages:
    174
    Likes Received:
    18