DVD Mashonda - Back Of Da Club (Promo Only) [VOB]

Discussion in 'SD' started by claudio1301, Aug 4, 2020.

  1. claudio1301

    claudio1301 Well-Known Member

    Joined:
    Oct 2, 2018
    Messages:
    1,390
    Likes Received:
    2,928
    [​IMG]
    Code:
    General
    Complete name                  : Mashonda - Back Of Da Club (Promo Only).vob
    Format                         : MPEG-PS
    File size                      : 204 MiB
    Duration                       : 3 min 40 s
    Overall bit rate mode          : Variable
    Overall bit rate               : 7 745 kb/s
    
    Video
    ID                             : 224 (0xE0)
    Format                         : MPEG Video
    Format version                 : Version 2
    Format profile                 : Main@Main
    Format settings                : BVOP
    Format settings, BVOP          : Yes
    Format settings, Matrix        : Default
    Format settings, GOP           : M=3, N=13
    Format settings, picture struc : Field
    Duration                       : 3 min 40 s
    Bit rate mode                  : Variable
    Bit rate                       : 6 050 kb/s
    Width                          : 720 pixels
    Height                         : 480 pixels
    Display aspect ratio           : 4:3
    Frame rate                     : 29.970 (30000/1001) FPS
    Standard                       : NTSC
    Color space                    : YUV
    Chroma subsampling             : 4:2:0
    Bit depth                      : 8 bits
    Scan type                      : Interlaced
    Scan order                     : Top Field First
    Compression mode               : Lossy
    Bits/(Pixel*Frame)             : 0.584
    Time code of first frame       : 00:00:00:00
    Time code source               : Group of pictures header
    GOP, Open/Closed               : Closed
    Stream size                    : 159 MiB (78%)
    Color primaries                : BT.601 NTSC
    Transfer characteristics       : BT.601
    Matrix coefficients            : BT.601
    
    Audio
    ID                             : 189 (0xBD)-160 (0xA0)
    Format                         : PCM
    Format settings                : Big / Signed
    Muxing mode                    : DVD-Video
    Duration                       : 3 min 40 s
    Bit rate mode                  : Constant
    Bit rate                       : 1 536 kb/s
    Channel(s)                     : 2 channels
    Sampling rate                  : 48.0 kHz
    Bit depth                      : 16 bits
    Stream size                    : 40.4 MiB (20%)
    
    Menu
    Host: Mediafire
    Hidden Content:
    You must reply before you can see the hidden data contained here.
     
  2. Loading...


  3. jeferso

    jeferso Active Member

    Joined:
    May 29, 2019
    Messages:
    387
    Likes Received:
    148
    obrigado
     
  4. GorgeousGemini

    GorgeousGemini Well-Known Member

    Joined:
    Aug 9, 2017
    Messages:
    1,337
    Likes Received:
    59
  5. zainbhatti1738

    zainbhatti1738 Active Member

    Joined:
    Aug 8, 2016
    Messages:
    424
    Likes Received:
    36
    thnks
     
  6. Toxicity-56

    Toxicity-56 Member

    Joined:
    Nov 15, 2019
    Messages:
    376
    Likes Received:
    14
    thank u