Maruv - Между нами (1080p ProRes)

Discussion in 'PRORES HD' started by denn3868, Aug 20, 2019.

  1. denn3868

    denn3868 Active Member

    Joined:
    Jul 7, 2014
    Messages:
    372
    Likes Received:
    71
    [​IMG]

    Video
    ID : 1
    Format : ProRes
    Format version : Version 0
    Format profile : 422 HQ
    Codec ID : apch
    Duration : 2 min 59 s
    Bit rate mode : Variable
    Bit rate : 189 Mb/s
    Width : 1 920 pixels
    Height : 1 080 pixels
    Display aspect ratio : 16:9
    Frame rate mode : Constant
    Frame rate : 25.000 FPS
    Color space : YUV
    Chroma subsampling : 4:2:2
    Scan type : Progressive
    Bits/(Pixel*Frame) : 3.652
    Stream size : 3.95 GiB (99%)
    Writing library : Apple
    Language : English
    Encoded date : UTC 2019-07-21 14:49:15
    Tagged date : UTC 2019-07-21 14:49:15
    Color primaries : BT.709
    Transfer characteristics : BT.709
    Matrix coefficients : BT.709
    Menus : 0

    Audio
    ID : 2
    Format : PCM
    Format settings : Little / Signed
    Codec ID : sowt
    Duration : 2 min 59 s
    Bit rate mode : Constant
    Bit rate : 1 411.2 kb/s
    Channel(s) : 2 channels
    Channel layout : L R
    Sampling rate : 44.1 kHz
    Bit depth : 16 bits
    Stream size : 30.2 MiB (1%)
    Language : English
    Encoded date : UTC 2019-07-21 14:49:15
    Tagged date : UTC 2019-07-21 14:49:15
    Menus : 0

    Hidden Content:
    You must reply before you can see the hidden data contained here.
     
  2. Loading...

    Similar Threads
    1. denn3868
      Replies:
      8
      Views:
      140

  3. Inna

    Inna Member

    Joined:
    Sep 8, 2014
    Messages:
    114
    Likes Received:
    4
    Thank you very much!
     
  4. believer2017

    believer2017 Member

    Joined:
    Aug 19, 2017
    Messages:
    50
    Likes Received:
    0
    Thank You
     
  5. abcdefg

    abcdefg Active Member

    Joined:
    Feb 6, 2018
    Messages:
    503
    Likes Received:
    38
    Thank You
     
  6. vitalya3

    vitalya3 Well-Known Member

    Joined:
    Dec 4, 2017
    Messages:
    1,343
    Likes Received:
    1,584
    Thank You
     
  7. nhat4444

    nhat4444 Member

    Joined:
    Sep 28, 2018
    Messages:
    289
    Likes Received:
    3
    Thanks!!
     
  8. kyotoshi

    kyotoshi Member

    Joined:
    Dec 6, 2018
    Messages:
    141
    Likes Received:
    2
    Thanks
     
  9. Vinny

    Vinny Well-Known Member

    Joined:
    Dec 26, 2013
    Messages:
    4,380
    Likes Received:
    62
    Thanks
     
  10. Leonardo7777777

    Leonardo7777777 Active Member

    Joined:
    Jan 3, 2016
    Messages:
    598
    Likes Received:
    29
    Thanks
     
  11. Lemonaded

    Lemonaded New Member

    Joined:
    Aug 24, 2019
    Messages:
    7
    Likes Received:
    0
  12. krest

    krest Member

    Joined:
    May 31, 2015
    Messages:
    430
    Likes Received:
    6
    Thank You
     
  13. HSC

    HSC New Member

    Joined:
    Feb 13, 2017
    Messages:
    27
    Likes Received:
    2
    thanks!!