Martin Solveig ft. GTA - Intoxicated (Mtv.Live.HD.1080i.DD5.1).-Crusha

Discussion in 'MTV LIVE HD' started by Crusha, Jul 2, 2015.

  1. Crusha

    Crusha Well-Known Member Capper

    Joined:
    Oct 15, 2014
    Messages:
    2,350
    Likes Received:
    2,252
    [​IMG]

    General
    ID : 1 (0x1)
    Complete name : Martin Solveig ft. GTA - Intoxicated (Mtv.Live.HD.1080i.DD5.1).-Crusha.ts
    Format : MPEG-TS
    File size : 82.5 MiB
    Duration : 3mn 13s
    Overall bit rate mode : Variable
    Overall bit rate : 3 573 Kbps

    Video
    ID : 2755 (0xAC3)
    Menu ID : 855 (0x357)
    Format : AVC
    Format/Info : Advanced Video Codec
    Format profile : [email protected]
    Format settings, CABAC : Yes
    Format settings, ReFrames : 4 frames
    Codec ID : 27
    Duration : 3mn 13s
    Bit rate : 3 009 Kbps
    Width : 1 920 pixels
    Height : 1 080 pixels
    Display aspect ratio : 16:9
    Frame rate : 29.970 fps
    Standard : Component
    Color space : YUV
    Chroma subsampling : 4:2:0
    Bit depth : 8 bits
    Scan type : MBAFF
    Scan order : Top Field First
    Bits/(Pixel*Frame) : 0.048
    Stream size : 69.4 MiB (84%)
    Color primaries : BT.709
    Transfer characteristics : BT.709
    Matrix coefficients : BT.709
    Color range : Limited

    Audio
    ID : 3755 (0xEAB)
    Menu ID : 855 (0x357)
    Format : AC-3
    Format/Info : Audio Coding 3
    Mode extension : CM (complete main)
    Format settings, Endianness : Big
    Codec ID : 6
    Duration : 3mn 13s
    Bit rate mode : Constant
    Bit rate : 384 Kbps
    Channel(s) : 6 channels
    Channel positions : Front: L C R, Side: L R, LFE
    Sampling rate : 48.0 KHz
    Bit depth : 16 bits
    Compression mode : Lossy
    Delay relative to video : -33ms
    Stream size : 8.86 MiB (11%)
    Language : English

    Hidden Content:
    You must either reply or click 'Like' to see the hidden information contained here.
    Password: crusha

    Cap By Me :)
     
    Dreamer likes this.
  2. Loading...


  3. atakano

    atakano Member

    Joined:
    Oct 6, 2014
    Messages:
    219
    Likes Received:
    3
    thanks for video
     
  4. chikanchiigor

    chikanchiigor New Member

    Joined:
    Sep 25, 2016
    Messages:
    11
    Likes Received:
    0
    Cool one