Maroon 5 - She Will Be Loved (VH1.HD.1080i.DD5.1).-Crusha

Discussion in 'VH1 HD' started by Crusha, May 27, 2016.

  1. Crusha

    Crusha Well-Known Member Capper V . I . P.

    Joined:
    Oct 15, 2014
    Messages:
    2,358
    Likes Received:
    2,649
    [​IMG]
    [​IMG] [​IMG] [​IMG] [​IMG] [​IMG] [​IMG]

    Mediainfo
    Code:
    General
    ID                             : 1 (0x1)
    Complete name                  : Maroon 5 - She Will Be Loved (VH1.HD.1080i.DD5.1).-Crusha.ts
    Format                         : MPEG-TS
    File size                      : 108 MiB
    Duration                       : 4mn 26s
    Overall bit rate mode          : Variable
    Overall bit rate               : 3 410 Kbps
    
    Video
    ID                             : 2943 (0xB7F)
    Menu ID                        : 1515 (0x5EB)
    Format                         : AVC
    Format/Info                    : Advanced Video Codec
    Format profile                 : [email protected]
    Format settings, CABAC         : Yes
    Format settings, ReFrames      : 4 frames
    Codec ID                       : 27
    Duration                       : 4mn 25s
    Bit rate                       : 2 853 Kbps
    Width                          : 1 920 pixels
    Height                         : 1 080 pixels
    Display aspect ratio           : 16:9
    Frame rate                     : 29.970 fps
    Standard                       : Component
    Color space                    : YUV
    Chroma subsampling             : 4:2:0
    Bit depth                      : 8 bits
    Scan type                      : MBAFF
    Scan order                     : Top Field First
    Bits/(Pixel*Frame)             : 0.046
    Stream size                    : 90.4 MiB (84%)
    Color range                    : Limited
    Color primaries                : BT.709
    Transfer characteristics       : BT.709
    Matrix coefficients            : BT.709
    
    Audio
    ID                             : 3909 (0xF45)
    Menu ID                        : 1515 (0x5EB)
    Format                         : AC-3
    Format/Info                    : Audio Coding 3
    Mode extension                 : CM (complete main)
    Format settings, Endianness    : Big
    Codec ID                       : 6
    Duration                       : 4mn 25s
    Bit rate mode                  : Constant
    Bit rate                       : 384 Kbps
    Channel(s)                     : 6 channels
    Channel positions              : Front: L C R, Side: L R, LFE
    Sampling rate                  : 48.0 KHz
    Bit depth                      : 16 bits
    Compression mode               : Lossy
    Delay relative to video        : -233ms
    Stream size                    : 12.2 MiB (11%)
    Language                       : English
    
    
    Hidden Content:
    You must reply before you can see the hidden data contained here.
    Password: crusha
     
  2. Loading...


  3. nickiexclusive

    nickiexclusive Video Maniac V . I . P. Uploader

    Joined:
    Sep 23, 2014
    Messages:
    2,383
    Likes Received:
    10,267
  4. thankstome

    thankstome Well-Known Member

    Joined:
    Feb 6, 2014
    Messages:
    859
    Likes Received:
    1,190
    thank you
     
  5. 777josem

    777josem ProRes 1080p LPCM V . I . P. Uploader

    Joined:
    Sep 1, 2014
    Messages:
    3,692
    Likes Received:
    2,918
    Thank you so much!
     
  6. PedroCorrea

    PedroCorrea Active Member

    Joined:
    Aug 21, 2014
    Messages:
    358
    Likes Received:
    45
  7. khan

    khan Well-Known Member

    Joined:
    May 11, 2014
    Messages:
    1,266
    Likes Received:
    86
    nice one
     
  8. Clannadan

    Clannadan Active Member

    Joined:
    Jun 17, 2016
    Messages:
    150
    Likes Received:
    29
    thanks!
     
  9. arnold

    arnold Member

    Joined:
    Oct 29, 2014
    Messages:
    239
    Likes Received:
    4
    thank you!!
     
  10. Jorge Barrionuevo

    Jorge Barrionuevo Well-Known Member

    Joined:
    Jun 9, 2015
    Messages:
    1,263
    Likes Received:
    494
    GRACIAS!
     
  11. revilo18

    revilo18 Well-Known Member

    Joined:
    May 26, 2016
    Messages:
    1,875
    Likes Received:
    85
    THANKKKK
     
  12. charlykorn

    charlykorn New Member

    Joined:
    Jul 9, 2016
    Messages:
    4
    Likes Received:
    0
  13. maurohachen

    maurohachen Active Member

    Joined:
    Feb 24, 2015
    Messages:
    469
    Likes Received:
    25
  14. Victorbfc

    Victorbfc Member

    Joined:
    Feb 12, 2014
    Messages:
    135
    Likes Received:
    22
    thank you
     
  15. larzpolanzki

    larzpolanzki Member

    Joined:
    Feb 10, 2014
    Messages:
    595
    Likes Received:
    18
    guau fantastic video
     
  16. Praveen867

    Praveen867 Member

    Joined:
    Nov 14, 2016
    Messages:
    598
    Likes Received:
    10
    tyyyyyyyy
     
  17. Oseasrock

    Oseasrock New Member

    Joined:
    May 8, 2016
    Messages:
    8
    Likes Received:
    0
    Ohooooo!!
     
  18. wkwkwaku

    wkwkwaku Active Member

    Joined:
    May 23, 2015
    Messages:
    706
    Likes Received:
    233
    thanks
     
  19. marcelox14

    marcelox14 Member

    Joined:
    Jan 8, 2017
    Messages:
    104
    Likes Received:
    16
    TH
    THANKS
     
  20. Frogman12

    Frogman12 Member

    Joined:
    Mar 28, 2017
    Messages:
    124
    Likes Received:
    9
  21. CristianMatias

    CristianMatias HIGH DEFINITION

    Joined:
    Sep 17, 2016
    Messages:
    827
    Likes Received:
    21
    Maroon 5 - She Will Be Loved