Mark Ronson feat. Bruno Mars - Uptown Funk (BridgeHD-1080i-MP2-Olgold)-HDMania

Discussion in 'Bridge HD' started by Olgold, Oct 13, 2016.

  1. Olgold

    Olgold Well-Known Member Capper

    Joined:
    Aug 19, 2015
    Messages:
    436
    Likes Received:
    1,829
    Mark Ronson feat. Bruno Mars - Uptown Funk
    [​IMG]
    General
    Format : MPEG-TS
    File size : 268 MiB
    Duration : 4 min 27 s
    Overall bit rate mode : Variable
    Overall bit rate : 8 404 kb/s

    Video
    Format : AVC
    Format/Info : Advanced Video Codec
    Format profile : High@L4
    Format settings, CABAC : Yes
    Format settings, ReFrames : 4 frames
    Duration : 4 min 26 s
    Bit rate : 7 795 kb/s
    Width : 1 920 pixels
    Height : 1 080 pixels
    Display aspect ratio : 16:9
    Frame rate : 25.000 FPS
    Standard : Component
    Color space : YUV
    Chroma subsampling : 4:2:0
    Bit depth : 8 bits
    Scan type : Interlaced
    Scan type, store method : Separated fields
    Scan order : Top Field First
    Bits/(Pixel*Frame) : 0.150
    Stream size : 247 MiB (92%)
    Color range : Limited

    Audio
    Format : MPEG Audio
    Format version : Version 1
    Format profile : Layer 2
    Duration : 4 min 27 s
    Bit rate mode : Constant
    Bit rate : 192 kb/s
    Channel(s) : 2 channels
    Sampling rate : 48.0 kHz
    Compression mode : Lossy
    Delay relative to video : 42 ms
    Stream size : 6.12 MiB (2%)
    Password: Olgold
    Hidden Content:
    You must reply before you can see the hidden data contained here.
     
    kbzajtonline, CELOBRAZiL and rhea like this.
  2. rhea

    rhea Well-Known Member

    Joined:
    Jan 6, 2014
    Messages:
    8,405
    Likes Received:
    1,213
    thank you so much
     
  3. CELOBRAZiL

    CELOBRAZiL Well-Known Member Capper V . I . P. Donor

    Joined:
    Oct 2, 2013
    Messages:
    5,740
    Likes Received:
    18,826
    Thank you so much! :)
     
  4. revilo18

    revilo18 Well-Known Member

    Joined:
    May 26, 2016
    Messages:
    2,290
    Likes Received:
    117
    thankkk
     
  5. chello21

    chello21 Member

    Joined:
    Aug 5, 2017
    Messages:
    78
    Likes Received:
    1
    thnxs
     
  6. porag303

    porag303 New Member

    Joined:
    Jul 11, 2017
    Messages:
    29
    Likes Received:
    1
    thank you
     
  7. Pires

    Pires New Member

    Joined:
    Aug 16, 2017
    Messages:
    23
    Likes Received:
    0
    deliciouuuusss
     
  8. lovegungun

    lovegungun Member

    Joined:
    Dec 8, 2017
    Messages:
    289
    Likes Received:
    13
  9. RogerCieslar

    RogerCieslar Active Member

    Joined:
    Jan 3, 2018
    Messages:
    632
    Likes Received:
    52
  10. cvn4ever

    cvn4ever New Member

    Joined:
    Jul 10, 2018
    Messages:
    1
    Likes Received:
    1
    uptown funk you up :victory:
     
    RogerCieslar likes this.