DVD Mario - C'mon (Promo Only) [VOB]

Discussion in 'SD' started by claudio1301, Oct 20, 2020.

  1. claudio1301

    claudio1301 Well-Known Member V . I . P.

    Joined:
    Oct 2, 2018
    Messages:
    1,488
    Likes Received:
    3,364
    [​IMG]
    Code:
    General
    Complete name                  : Mario - C'mon (Promo Only).vob
    Format                         : MPEG-PS
    File size                      : 173 MiB
    Duration                       : 3 min 34 s
    Overall bit rate mode          : Variable
    Overall bit rate               : 6 745 kb/s
    
    Video
    ID                             : 224 (0xE0)
    Format                         : MPEG Video
    Format version                 : Version 2
    Format profile                 : Main@Main
    Format settings                : BVOP
    Format settings, BVOP          : Yes
    Format settings, Matrix        : Default
    Format settings, GOP           : M=3, N=13
    Format settings, picture struc : Frame
    Duration                       : 3 min 34 s
    Bit rate mode                  : Variable
    Bit rate                       : 5 075 kb/s
    Maximum bit rate               : 7 800 kb/s
    Width                          : 720 pixels
    Height                         : 480 pixels
    Display aspect ratio           : 4:3
    Frame rate                     : 29.970 (30000/1001) FPS
    Standard                       : NTSC
    Color space                    : YUV
    Chroma subsampling             : 4:2:0
    Bit depth                      : 8 bits
    Scan type                      : Interlaced
    Scan order                     : Top Field First
    Compression mode               : Lossy
    Bits/(Pixel*Frame)             : 0.490
    Time code of first frame       : 00:00:00;00
    Time code source               : Group of pictures header
    GOP, Open/Closed               : Closed
    Stream size                    : 130 MiB (75%)
    Color primaries                : BT.601 NTSC
    Transfer characteristics       : BT.601
    Matrix coefficients            : BT.601
    
    Audio
    ID                             : 189 (0xBD)-160 (0xA0)
    Format                         : PCM
    Format settings                : Big / Signed
    Muxing mode                    : DVD-Video
    Duration                       : 3 min 34 s
    Bit rate mode                  : Constant
    Bit rate                       : 1 536 kb/s
    Channel(s)                     : 2 channels
    Sampling rate                  : 48.0 kHz
    Bit depth                      : 16 bits
    Delay relative to video        : 2 ms
    Stream size                    : 39.3 MiB (23%)
    Host: Mediafire
    Hidden Content:
    You must reply before you can see the hidden data contained here.
     
  2. Loading...


  3. GorgeousGemini

    GorgeousGemini Well-Known Member

    Joined:
    Aug 9, 2017
    Messages:
    1,403
    Likes Received:
    66
    thank u loved this song and video
     
    claudio1301 likes this.
  4. jeferso

    jeferso Active Member

    Joined:
    May 29, 2019
    Messages:
    405
    Likes Received:
    162
    obrigado
     
  5. matolo

    matolo Member

    Joined:
    Feb 2, 2016
    Messages:
    237
    Likes Received:
    4
    thanks
     
  6. dvj tronick 2020

    dvj tronick 2020 Member

    Joined:
    Jul 31, 2020
    Messages:
    82
    Likes Received:
    5
  7. Ptroy

    Ptroy Member

    Joined:
    Feb 21, 2017
    Messages:
    122
    Likes Received:
    2
    thanks