Marina and the Diamonds - Forget (Bis.HD.1080i.DD5.1).-Crusha

Discussion in 'BIS HD' started by Crusha, May 11, 2015.

  1. Crusha

    Crusha Well-Known Member Capper

    Joined:
    Oct 15, 2014
    Messages:
    2,350
    Likes Received:
    2,251
    [​IMG]

    General
    ID : 1 (0x1)
    Complete name : C:\Users\SONGOKU\Videos\Marina and the Diamonds - Forget (Bis.HD.1080i.DD5.1).-Crusha.ts
    Format : MPEG-TS
    File size : 96.6 MiB
    Duration : 4mn 5s
    Overall bit rate mode : Variable
    Overall bit rate : 3 300 Kbps

    Video
    ID : 2027 (0x7EB)
    Menu ID : 802 (0x322)
    Format : AVC
    Format/Info : Advanced Video Codec
    Format profile : [email protected]
    Format settings, CABAC : Yes
    Format settings, ReFrames : 4 frames
    Codec ID : 27
    Duration : 4mn 5s
    Bit rate : 2 749 Kbps
    Width : 1 920 pixels
    Height : 1 080 pixels
    Display aspect ratio : 16:9
    Frame rate : 29.970 fps
    Standard : Component
    Color space : YUV
    Chroma subsampling : 4:2:0
    Bit depth : 8 bits
    Scan type : MBAFF
    Scan order : Top Field First
    Bits/(Pixel*Frame) : 0.044
    Stream size : 80.3 MiB (83%)
    Color primaries : BT.709
    Transfer characteristics : BT.709
    Matrix coefficients : BT.709
    Color range : Limited

    Audio
    ID : 3027 (0xBD3)
    Menu ID : 802 (0x322)
    Format : AC-3
    Format/Info : Audio Coding 3
    Mode extension : CM (complete main)
    Format settings, Endianness : Big
    Codec ID : 6
    Duration : 4mn 5s
    Bit rate mode : Constant
    Bit rate : 384 Kbps
    Channel(s) : 6 channels
    Channel positions : Front: L C R, Side: L R, LFE
    Sampling rate : 48.0 KHz
    Bit depth : 16 bits
    Compression mode : Lossy
    Delay relative to video : -134ms
    Stream size : 11.2 MiB (12%)
    Language : English

    Hidden Content:
    You must either reply or click 'Like' to see the hidden information contained here.
    Pass: crusha

    Cap by Me :D
     
    AdrianoValdez, cjeast1975 and rhea like this.
  2. rhea

    rhea Well-Known Member

    Joined:
    Jan 6, 2014
    Messages:
    5,648
    Likes Received:
    365
    thanks a lot
     
  3. Zatimi

    Zatimi Active Member

    Joined:
    Aug 27, 2014
    Messages:
    633
    Likes Received:
    77
    thanks a lot
     
  4. brian182

    brian182 Well-Known Member

    Joined:
    Oct 14, 2013
    Messages:
    1,661
    Likes Received:
    46
    thanks for Marinão!!
     
  5. slill

    slill Member

    Joined:
    Jul 25, 2014
    Messages:
    929
    Likes Received:
    12
    thanks
     
  6. textyoupictures

    textyoupictures Member

    Joined:
    Apr 5, 2014
    Messages:
    70
    Likes Received:
    0