Mariah Carey - Without You (MTVIdol-1080i-DD2.0)-Olgold

Discussion in 'MTV IDOL' started by Olgold, Apr 14, 2017.

  1. Olgold

    Olgold Well-Known Member Capper

    Joined:
    Aug 19, 2015
    Messages:
    436
    Likes Received:
    2,047
    Mariah Carey - Without You
    [​IMG]
    General
    Format : MPEG-TS
    File size : 125 MiB
    Duration : 3 min 48 s
    Overall bit rate mode : Variable
    Overall bit rate : 4 583 kb/s

    Video
    Format : AVC
    Format/Info : Advanced Video Codec
    Format profile : High@L4
    Format settings, CABAC : Yes
    Format settings, ReFrames : 4 frames
    Format settings, GOP : M=8, N=24
    Duration : 3 min 48 s
    Bit rate : 4 163 kb/s
    Width : 1 920 pixels
    Height : 1 080 pixels
    Display aspect ratio : 16:9
    Frame rate : 25.000 FPS
    Standard : Component
    Color space : YUV
    Chroma subsampling : 4:2:0
    Bit depth : 8 bits
    Scan type : MBAFF
    Scan type, store method : Interleaved fields
    Scan order : Top Field First
    Bits/(Pixel*Frame) : 0.080
    Stream size : 113 MiB (91%)

    Audio
    Format : AC-3
    Format/Info : Audio Coding 3
    Mode extension : CM (complete main)
    Format settings, Endianness : Big
    Duration : 3 min 48 s
    Bit rate mode : Constant
    Bit rate : 192 kb/s
    Channel(s) : 2 channels
    Channel positions : Front: L R
    Sampling rate : 48.0 kHz
    Frame rate : 31.250 FPS (1536 spf)
    Compression mode : Lossy
    Delay relative to video : -4 ms
    Stream size : 5.22 MiB (4%)
    Password: Olgold

    Hidden Content:
    You must reply before you can see the hidden data contained here.
     
    lifevirgin, tuan68, jack and 11 others like this.
  2. Loading...


  3. babiq

    babiq Member

    Joined:
    Oct 15, 2015
    Messages:
    144
    Likes Received:
    19
    thank you
     
  4. Dreamer

    Dreamer Lana Del Slay V . I . P. Uploader

    Joined:
    Dec 4, 2014
    Messages:
    3,210
    Likes Received:
    10,987
    Thank you so much!
     
  5. rvden

    rvden Well-Known Member

    Joined:
    Apr 9, 2017
    Messages:
    998
    Likes Received:
    740
    Thank you!
     
  6. windson2

    windson2 Active Member

    Joined:
    Feb 7, 2017
    Messages:
    494
    Likes Received:
    80
    Thank you so much!
     
  7. CELOBRAZiL

    CELOBRAZiL Well-Known Member Capper V . I . P. Donor

    Joined:
    Oct 2, 2013
    Messages:
    9,704
    Likes Received:
    36,717
    Thank you so much! :)
     
  8. StephenHudson

    StephenHudson New Member

    Joined:
    Apr 25, 2017
    Messages:
    3
    Likes Received:
    1
    awsome
     
  9. carloskoschel

    carloskoschel Well-Known Member

    Joined:
    Jul 22, 2016
    Messages:
    1,027
    Likes Received:
    123
    Thank you so much! :)
     
  10. rodrigoinbrazil

    rodrigoinbrazil Member

    Joined:
    Jan 30, 2017
    Messages:
    95
    Likes Received:
    26
    Thank you,Olgold!
     
  11. #SuperBoy

    #SuperBoy Well-Known Member

    Joined:
    Dec 11, 2016
    Messages:
    868
    Likes Received:
    987
    Thank U
     
  12. porrafaell

    porrafaell Member

    Joined:
    Sep 20, 2016
    Messages:
    127
    Likes Received:
    8
  13. janito33

    janito33 Active Member

    Joined:
    Dec 10, 2014
    Messages:
    897
    Likes Received:
    36
    gracis por el video
     
  14. nastybutf4ncy

    nastybutf4ncy https://www.instagram.com/remasteredvideos/

    Joined:
    Jun 25, 2017
    Messages:
    1,960
    Likes Received:
    1,867
    thanks
     
  15. holymariahcarey

    holymariahcarey Member

    Joined:
    May 21, 2017
    Messages:
    66
    Likes Received:
    5
  16. Thiago Lyra

    Thiago Lyra Active Member

    Joined:
    May 20, 2015
    Messages:
    464
    Likes Received:
    29
  17. cotoipa

    cotoipa Active Member

    Joined:
    Jun 24, 2017
    Messages:
    528
    Likes Received:
    28
    thanks
     
  18. CristianMatias

    CristianMatias Next Generations

    Joined:
    Sep 17, 2016
    Messages:
    1,374
    Likes Received:
    419
    Mariah Carey - Without You
     
  19. music2soul

    music2soul Well-Known Member

    Joined:
    Jun 7, 2016
    Messages:
    634
    Likes Received:
    292
  20. tunk

    tunk Member

    Joined:
    Feb 21, 2016
    Messages:
    87
    Likes Received:
    3
    Thanks
     
  21. rhea

    rhea Well-Known Member

    Joined:
    Jan 6, 2014
    Messages:
    11,469
    Likes Received:
    2,201
    thanks