Mariah Carey - Touch My Body (MTV BASE HD-1080i-DD2.0-By.YLDz)

Discussion in 'MTV BASE' started by DETOX, Mar 1, 2015.

  1. DETOX

    DETOX Well-Known Member V . I . P. Uploader

    Joined:
    Feb 20, 2014
    Messages:
    2,788
    Likes Received:
    15,674

    Mariah Carey - Touch My Body (MTV BASE HD-1080i-DD2.0-By.YLDz)
    [​IMG]

    General
    ID : 1 (0x1)
    Complete name : Mariah Carey - Touch My Body (MTV BASE HD-1080i-DD2.0-By.YLDz).ts
    Format : MPEG-TS
    File size : 278 MiB
    Duration : 4mn 18s
    Overall bit rate mode : Variable
    Overall bit rate : 9 052 Kbps

    Video
    ID : 110 (0x6E)
    Menu ID : 1 (0x1)
    Format : AVC
    Format/Info : Advanced Video Codec
    Format profile : [email protected]
    Format settings, CABAC : Yes
    Format settings, ReFrames : 4 frames
    Codec ID : 27
    Duration : 4mn 18s
    Bit rate : 8 346 Kbps
    Width : 1 920 pixels
    Height : 1 080 pixels
    Display aspect ratio : 16:9
    Frame rate : 25.000 fps
    Standard : Component
    Color space : YUV
    Chroma subsampling : 4:2:0
    Bit depth : 8 bits
    Scan type : MBAFF
    Scan order : Top Field First
    Bits/(Pixel*Frame) : 0.161
    Stream size : 257 MiB (92%)
    Color primaries : BT.709
    Transfer characteristics : BT.709
    Matrix coefficients : BT.709
    Color range : Limited

    Audio
    ID : 121 (0x79)
    Menu ID : 1 (0x1)
    Format : AC-3
    Format/Info : Audio Coding 3
    Mode extension : CM (complete main)
    Format settings, Endianness : Big
    Codec ID : 6
    Duration : 4mn 18s
    Bit rate mode : Constant
    Bit rate : 256 Kbps
    Channel(s) : 2 channels
    Channel positions : Front: L R
    Sampling rate : 48.0 KHz
    Bit depth : 16 bits
    Compression mode : Lossy
    Stream size : 7.88 MiB (3%)
    Language : French

    Credits to By.YLDz

    SERVER: MEGA / PASSWORD: DETOX
    Hidden Content:
    You must reply before you can see the hidden data contained here.
     
  2. Loading...


  3. Lakatos

    Lakatos Member

    Joined:
    Nov 18, 2014
    Messages:
    56
    Likes Received:
    1
    Thank You
     
  4. rhea

    rhea Well-Known Member

    Joined:
    Jan 6, 2014
    Messages:
    5,541
    Likes Received:
    309
    thank you so much :)
     
  5. GuruPitka

    GuruPitka Member

    Joined:
    Apr 3, 2014
    Messages:
    148
    Likes Received:
    2
    thank you
     
  6. Joseph

    Joseph Active Member

    Joined:
    Dec 10, 2013
    Messages:
    740
    Likes Received:
    162
    thank you
     
  7. Dreamer

    Dreamer Lana Del Rey ♥ Capper Uploader

    Joined:
    Dec 4, 2014
    Messages:
    2,391
    Likes Received:
    2,411
    Thank you so much
     
  8. MaggieS

    MaggieS Active Member

    Joined:
    Sep 19, 2014
    Messages:
    950
    Likes Received:
    36
    thanks:D
     
  9. brit

    brit Member

    Joined:
    Dec 14, 2013
    Messages:
    268
    Likes Received:
    3
    Thank You
     
  10. Puchacz93

    Puchacz93 Well-Known Member

    Joined:
    Feb 4, 2015
    Messages:
    1,206
    Likes Received:
    695
    Thank you for MiMi.
     
  11. slill

    slill Member

    Joined:
    Jul 25, 2014
    Messages:
    929
    Likes Received:
    11
    thanks
     
  12. archizam27

    archizam27 New Member

    Joined:
    Jan 15, 2015
    Messages:
    15
    Likes Received:
    1
     
  13. Nhat Thien Nguyen

    Nhat Thien Nguyen Member

    Joined:
    Oct 26, 2014
    Messages:
    192
    Likes Received:
    7
  14. HEREFORMARIAH

    HEREFORMARIAH New Member

    Joined:
    Jul 27, 2014
    Messages:
    21
    Likes Received:
    0
    thanks you
     
  15. Danielcha

    Danielcha Member

    Joined:
    Sep 20, 2014
    Messages:
    74
    Likes Received:
    0
    thanks so much
     
  16. lifevirgin

    lifevirgin Active Member

    Joined:
    Feb 15, 2014
    Messages:
    362
    Likes Received:
    31
     
  17. Ray Daily

    Ray Daily Member

    Joined:
    Oct 3, 2013
    Messages:
    121
    Likes Received:
    9
    Thanks
     
  18. jone

    jone New Member

    Joined:
    Jan 18, 2015
    Messages:
    13
    Likes Received:
    0
    thank you!
     
  19. marco desolo

    marco desolo Member

    Joined:
    Dec 21, 2014
    Messages:
    62
    Likes Received:
    3
     
    Chris Johnson likes this.
  20. lukierrywhere

    lukierrywhere Member

    Joined:
    May 1, 2015
    Messages:
    157
    Likes Received:
    1
    thank you
     
  21. mc kim

    mc kim Member

    Joined:
    Dec 20, 2013
    Messages:
    42
    Likes Received:
    1
    Thank You!