CC Mariah Carey Feat. Da Brat - Loverboy [Remix] PARAMOUNTHD 1080i HDTV DD2.0 H.264 CELOBRAZiL-HDMania

Discussion in 'PARAMOUNT' started by CELOBRAZiL, Dec 22, 2016.

  1. CELOBRAZiL

    CELOBRAZiL Well-Known Member Capper V . I . P. Donor

    Joined:
    Oct 2, 2013
    Messages:
    1,341
    Likes Received:
    3,503
    Mariah Carey Feat. Da Brat - Loverboy [Remix] PARAMOUNTHD 1080i HDTV DD2.0 H.264 CELOBRAZiL-HDMania [CC]

    [​IMG]


    Format : MPEG-TS
    File size : 259 MiB
    Duration : 4mn 29s
    Overall bit rate mode : Variable
    Overall bit rate : 8 067 Kbps

    Video
    ID : 6960 (0x1B30)
    Menu ID : 1 (0x1)
    Format : AVC
    Format/Info : Advanced Video Codec
    Format profile : [email protected]
    Format settings, CABAC : Yes
    Format settings, ReFrames : 3 frames
    Codec ID : 27
    Duration : 4mn 29s
    Bit rate : 7 281 Kbps
    Width : 1 920 pixels
    Height : 1 080 pixels
    Display aspect ratio : 16:9
    Frame rate : 29.970 fps
    Color space : YUV
    Chroma subsampling : 4:2:0
    Bit depth : 8 bits
    Scan type : MBAFF
    Scan order : Top Field First
    Bits/(Pixel*Frame) : 0.117
    Stream size : 234 MiB (90%)

    Audio #1
    ID : 6961 (0x1B31)
    Menu ID : 1 (0x1)
    Format : AC-3
    Format/Info : Audio Coding 3
    Mode extension : CM (complete main)
    Format settings, Endianness : Big
    Codec ID : 6
    Duration : 4mn 29s
    Bit rate mode : Constant
    Bit rate : 192 Kbps
    Channel(s) : 2 channels
    Channel positions : Front: L R
    Sampling rate : 48.0 KHz
    Bit depth : 16 bits
    Compression mode : Lossy
    Delay relative to video : -100ms
    Stream size : 6.16 MiB (2%)
    Language : English

    Audio #2
    ID : 6962 (0x1B32)
    Menu ID : 1 (0x1)
    Format : AC-3
    Format/Info : Audio Coding 3
    Mode extension : CM (complete main)
    Format settings, Endianness : Big
    Codec ID : 6
    Duration : 4mn 29s
    Bit rate mode : Constant
    Bit rate : 192 Kbps
    Channel(s) : 2 channels
    Channel positions : Front: L R
    Sampling rate : 48.0 KHz
    Bit depth : 16 bits
    Compression mode : Lossy
    Delay relative to video : -100ms
    Stream size : 6.16 MiB (2%)
    Language : English

    Text #1
    ID : 6960 (0x1B30)-CC1
    Menu ID : 1 (0x1)
    Format : EIA-608
    Muxing mode : SCTE 128 / DTVCC Transport
    Muxing mode, more info : Muxed in Video #1
    Duration : 4mn 29s
    Bit rate mode : Constant
    Stream size : 0.00 Byte (0%)

    Text #2
    ID : 6960 (0x1B30)-CC4
    Menu ID : 1 (0x1)
    Format : EIA-608
    Muxing mode : SCTE 128 / DTVCC Transport
    Muxing mode, more info : Muxed in Video #1
    Duration : 4mn 29s
    Bit rate mode : Constant
    Stream size : 0.00 Byte (0%)

    Text #3
    ID : 6960 (0x1B30)-1
    Menu ID : 1 (0x1)
    Format : EIA-708
    Muxing mode : SCTE 128 / DTVCC Transport
    Muxing mode, more info : Muxed in Video #1
    Duration : 4mn 29s
    Bit rate mode : Constant
    Stream size : 0.00 Byte (0%)

    Link(s):
    Hidden Content:
    You must either reply or click 'Like' to see the hidden information contained here.
     
  2. DETOX

    DETOX Well-Known Member V . I . P. Uploader

    Joined:
    Feb 20, 2014
    Messages:
    2,596
    Likes Received:
    12,211
    Thank you so much, CELO!:love:
     
    CELOBRAZiL likes this.
  3. Jaru

    Jaru Member

    Joined:
    Sep 24, 2015
    Messages:
    68
    Likes Received:
    1
    Thanks
     
  4. J_Pablo

    J_Pablo Active Member

    Joined:
    Nov 27, 2013
    Messages:
    417
    Likes Received:
    56
    I'm gonna die... thank you so so much... I'm a big fan of this era!
     
    CELOBRAZiL likes this.
  5. TrendMusic

    TrendMusic Active Member

    Joined:
    Oct 7, 2013
    Messages:
    848
    Likes Received:
    40
  6. nachostripped

    nachostripped Member

    Joined:
    Feb 5, 2015
    Messages:
    292
    Likes Received:
    5
  7. GHN

    GHN Member

    Joined:
    Oct 27, 2014
    Messages:
    385
    Likes Received:
    10
    thanks
     
  8. kokomama

    kokomama Member

    Joined:
    Oct 15, 2015
    Messages:
    182
    Likes Received:
    0
    thanks
     
  9. yoking

    yoking New Member

    Joined:
    Jan 3, 2017
    Messages:
    28
    Likes Received:
    0
    thanks
     
  10. madomanniaco

    madomanniaco Member

    Joined:
    May 18, 2015
    Messages:
    71
    Likes Received:
    1
    wowwwwwwwwwwww