Mariah Carey - Almost Home 1080P MKV 336MB

Discussion in 'MTV BASE' started by Puchacz93, Oct 1, 2015.

  1. Puchacz93

    Puchacz93 Well-Known Member

    Joined:
    Feb 4, 2015
    Messages:
    1,206
    Likes Received:
    765
    [​IMG]

    General
    Unique ID : 180630519471220758402718636578546060038 (0x87E42C319C17FAC19A64CE301F9F0B06)
    Complete name : Mariah Carey - Almost Home.mkv
    Format : Matroska
    Format version : Version 4 / Version 2
    File size : 336 MiB
    Duration : 3mn 44s
    Overall bit rate : 12.5 Mbps
    Encoded date : UTC 2013-04-23 14:55:00
    Writing application : mkvmerge v6.1.0 ('Old Devil') built on Mar 2 2013 14:32:37
    Writing library : libebml v1.3.0 + libmatroska v1.4.0
    Attachements : Mariah Carey - Almost Home_fixed_filtered.ts

    Video
    ID : 2
    Format : AVC
    Format/Info : Advanced Video Codec
    Format profile : High@L4
    Format settings, CABAC : Yes
    Format settings, ReFrames : 4 frames
    Format settings, GOP : M=8, N=24
    Codec ID : V_MPEG4/ISO/AVC
    Duration : 3mn 44s
    Bit rate : 12.0 Mbps
    Width : 1 920 pixels
    Height : 1 080 pixels
    Display aspect ratio : 16:9
    Frame rate mode : Constant
    Frame rate : 25.000 fps
    Standard : Component
    Color space : YUV
    Chroma subsampling : 4:2:0
    Bit depth : 8 bits
    Scan type : MBAFF
    Scan order : Top Field First
    Bits/(Pixel*Frame) : 0.232
    Stream size : 323 MiB (96%)
    Default : Yes
    Forced : No
    Color range : Limited
    Color primaries : BT.709
    Transfer characteristics : BT.709
    Matrix coefficients : BT.709

    Audio
    ID : 1
    Format : AC-3
    Format/Info : Audio Coding 3
    Mode extension : CM (complete main)
    Format settings, Endianness : Big
    Codec ID : A_AC3
    Duration : 3mn 44s
    Bit rate mode : Constant
    Bit rate : 256 Kbps
    Channel(s) : 2 channels
    Channel positions : Front: L R
    Sampling rate : 48.0 KHz
    Compression mode : Lossy
    Delay relative to video : 19ms
    Stream size : 6.86 MiB (2%)
    Language : French
    Default : Yes
    Forced : No


    Hidden Content:
    You must either reply or click 'Like' to see the hidden information contained here.
    Credits to the original capper.
     
  2. Loading...


  3. rhea

    rhea Well-Known Member

    Joined:
    Jan 6, 2014
    Messages:
    8,171
    Likes Received:
    1,150
    thank you so much!
     
    Puchacz93 likes this.
  4. s1sav

    s1sav Member

    Joined:
    Feb 27, 2014
    Messages:
    174
    Likes Received:
    12
    Thank you.
     
    Puchacz93 likes this.
  5. boy

    boy Member

    Joined:
    Dec 19, 2013
    Messages:
    545
    Likes Received:
    14
    thank u
     
    Puchacz93 likes this.
  6. franklele

    franklele Well-Known Member

    Joined:
    Nov 11, 2013
    Messages:
    2,528
    Likes Received:
    152
    thank you very much
     
    Puchacz93 likes this.
  7. Pavulon

    Pavulon Well-Known Member Donor

    Joined:
    Mar 22, 2016
    Messages:
    4,588
    Likes Received:
    990
    thanks
     
  8. slill

    slill Active Member

    Joined:
    Jul 25, 2014
    Messages:
    1,192
    Likes Received:
    19
    thanks
     
  9. VIVAfan1991

    VIVAfan1991 Active Member

    Joined:
    Jan 11, 2018
    Messages:
    658
    Likes Received:
    51
  10. hugonicolas

    hugonicolas Active Member

    Joined:
    Aug 25, 2017
    Messages:
    863
    Likes Received:
    38
  11. OOPArgentina

    OOPArgentina Member

    Joined:
    Jun 1, 2014
    Messages:
    100
    Likes Received:
    8
    Dead links.