Maluma - Sin Contrato (MTV.HD.LA.1080i.DD2.0).-Crusha

Discussion in 'MTV HD' started by Crusha, Sep 18, 2016.

  1. Crusha

    Crusha Well-Known Member Capper

    Joined:
    Oct 15, 2014
    Messages:
    2,349
    Likes Received:
    2,063
    [​IMG]

    Mediainfo

    Code:
    General
    ID                             : 1 (0x1)
    Complete name                  : Maluma - Sin Contrato (MTV.HD.LA.1080i.DD2.0).-Crusha.ts
    Format                         : MPEG-TS
    File size                      : 177 MiB
    Duration                       : 4mn 39s
    Overall bit rate mode          : Variable
    Overall bit rate               : 5 315 Kbps
    
    Video
    ID                             : 4472 (0x1178)
    Menu ID                        : 1893 (0x765)
    Format                         : AVC
    Format/Info                    : Advanced Video Codec
    Format profile                 : [email protected]
    Format settings, CABAC         : Yes
    Format settings, ReFrames      : 4 frames
    Codec ID                       : 27
    Duration                       : 4mn 39s
    Bit rate                       : 4 665 Kbps
    Width                          : 1 920 pixels
    Height                         : 1 080 pixels
    Display aspect ratio           : 16:9
    Frame rate                     : 29.970 fps
    Color space                    : YUV
    Chroma subsampling             : 4:2:0
    Bit depth                      : 8 bits
    Scan type                      : MBAFF
    Scan order                     : Top Field First
    Bits/(Pixel*Frame)             : 0.075
    Stream size                    : 155 MiB (88%)
    Color range                    : Limited
    Color primaries                : BT.709
    Transfer characteristics       : BT.709
    Matrix coefficients            : BT.709
    
    Audio
    ID                             : 5014 (0x1396)
    Menu ID                        : 1893 (0x765)
    Format                         : AC-3
    Format/Info                    : Audio Coding 3
    Mode extension                 : CM (complete main)
    Format settings, Endianness    : Big
    Codec ID                       : 6
    Duration                       : 4mn 39s
    Bit rate mode                  : Constant
    Bit rate                       : 384 Kbps
    Channel(s)                     : 2 channels
    Channel positions              : Front: L R
    Sampling rate                  : 48.0 KHz
    Bit depth                      : 16 bits
    Compression mode               : Lossy
    Stream size                    : 12.8 MiB (7%)
    Language                       : English
    
    
    Hidden Content:
    You must reply before you can see the hidden data contained here.
    Password: crusha
     
    rhea likes this.
  2. Loading...


  3. dersullana

    dersullana Active Member

    Joined:
    Dec 21, 2015
    Messages:
    427
    Likes Received:
    29
  4. rhea

    rhea Well-Known Member

    Joined:
    Jan 6, 2014
    Messages:
    5,193
    Likes Received:
    250
    thank you
     
  5. akon111

    akon111 Member

    Joined:
    Dec 29, 2015
    Messages:
    167
    Likes Received:
    0
    thanks
     
  6. zektor

    zektor New Member

    Joined:
    Nov 24, 2016
    Messages:
    1
    Likes Received:
    0
    thanks
     
  7. toritocar

    toritocar New Member

    Joined:
    Jan 9, 2017
    Messages:
    5
    Likes Received:
    0
    thnxx :))