Maluma - Sin Contrato (BridgeHD-1080i-MP2-Olgold)-HDMania

Discussion in 'Bridge HD' started by Olgold, Oct 17, 2016.

  1. Olgold

    Olgold Well-Known Member Capper

    Joined:
    Aug 19, 2015
    Messages:
    386
    Likes Received:
    1,329
    Maluma - Sin Contrato
    [​IMG]
    General
    Format : MPEG-TS
    File size : 232 MiB
    Duration : 4 min 15 s
    Overall bit rate mode : Variable
    Overall bit rate : 7 586 kb/s

    Video
    Format : AVC
    Format/Info : Advanced Video Codec
    Format profile : [email protected]
    Format settings, CABAC : Yes
    Format settings, ReFrames : 4 frames
    Duration : 4 min 16 s
    Bit rate : 7 017 kb/s
    Width : 1 920 pixels
    Height : 1 080 pixels
    Display aspect ratio : 16:9
    Frame rate : 25.000 FPS
    Standard : Component
    Color space : YUV
    Chroma subsampling : 4:2:0
    Bit depth : 8 bits
    Scan type : Interlaced
    Scan type, store method : Separated fields
    Scan order : Top Field First
    Bits/(Pixel*Frame) : 0.135
    Stream size : 214 MiB (92%)
    Color range : Limited

    Audio
    Format : MPEG Audio
    Format version : Version 1
    Format profile : Layer 2
    Duration : 4 min 15 s
    Bit rate mode : Constant
    Bit rate : 192 kb/s
    Channel(s) : 2 channels
    Sampling rate : 48.0 kHz
    Compression mode : Lossy
    Delay relative to video : -12 ms
    Stream size : 5.86 MiB (3%)
    Password: Olgold
    Hidden Content:
    You must reply before you can see the hidden data contained here.
     
    rhea and CELOBRAZiL like this.
  2. dersullana

    dersullana Active Member

    Joined:
    Dec 21, 2015
    Messages:
    502
    Likes Received:
    37
  3. CELOBRAZiL

    CELOBRAZiL Well-Known Member Capper V . I . P. Donor

    Joined:
    Oct 2, 2013
    Messages:
    1,772
    Likes Received:
    4,965
    Thank you so much! :)
     
  4. rhea

    rhea Well-Known Member

    Joined:
    Jan 6, 2014
    Messages:
    5,403
    Likes Received:
    260
    thank you so much :)
     
  5. Alvena

    Alvena Member

    Joined:
    Mar 25, 2014
    Messages:
    180
    Likes Received:
    7
    thanks
     
  6. mdonae

    mdonae Member

    Joined:
    Aug 14, 2016
    Messages:
    69
    Likes Received:
    0
    thanks
     
  7. toritocar

    toritocar New Member

    Joined:
    Jan 9, 2017
    Messages:
    5
    Likes Received:
    0
    thnx :))
     
  8. mnjason1

    mnjason1 Member

    Joined:
    Aug 30, 2016
    Messages:
    117
    Likes Received:
    14
    Thank you!