SDTV Madonna - (Re - Invention World Tour) (The Final Edition)

Discussion in 'SD Live Performances' started by hanshermann, Oct 11, 2017.

  1. hanshermann

    hanshermann Well-Known Member Uploader

    Joined:
    Aug 24, 2016
    Messages:
    5,805
    Likes Received:
    7,414
    [​IMG]

    Madonna - (Re - Invention World Tour) (The Final Edition)

    Code:
    General
    Complete name               : Madonna -  (Re - Invention World Tour) (The Final Edition).avi
    Format                      : AVI
    Format/Info                 : Audio Video Interleave
    Format profile              : OpenDML
    File size                   : 3.25 GiB
    Duration                    : 1 h 52 min
    Overall bit rate            : 4 125 kb/s
    Writing application         : Lavf56.36.100
    
    Video
    ID                          : 0
    Format                      : AVC
    Format/Info                 : Advanced Video Codec
    Format profile              : Baseline@L1.3
    Format settings, CABAC      : No
    Format settings, ReFrames   : 2 frames
    Codec ID                    : H264
    Duration                    : 1 h 52 min
    Bit rate                    : 4 000 kb/s
    Width                       : 852 pixels
    Height                      : 480 pixels
    Display aspect ratio        : 16:9
    Frame rate mode             : Variable
    Frame rate                  : 25.000 FPS
    Color space                 : YUV
    Chroma subsampling          : 4:2:0
    Bit depth                   : 8 bits
    Scan type                   : Progressive
    Bits/(Pixel*Frame)          : 0.391
    Stream size                 : 3.14 GiB (97%)
    Writing library             : x264 core 148 r2579 73ae2d1
    
    
    Audio
    ID                          : 1
    Format                      : MPEG Audio
    Format version              : Version 1
    Format profile              : Layer 3
    Mode                        : Joint stereo
    Mode extension              : MS Stereo
    Codec ID                    : 55
    Codec ID/Hint               : MP3
    Duration                    : 1 h 52 min
    Bit rate mode               : Constant
    Bit rate                    : 128 kb/s
    Channel(s)                  : 2 channels
    Sampling rate               : 44.1 kHz
    Compression mode            : Lossy
    Stream size                 : 103 MiB (3%)
    Alignment                   : Aligned on interleaves
    Interleave, duration        : 26  ms (0.65 video frame)
    Interleave, preload duratio : 26  ms
    
    Hidden Content:
    You must either reply or click 'Like' to see the hidden information contained here.
     
    Last edited: Apr 14, 2018
  2. Loading...


  3. sgkolmogorov

    sgkolmogorov Member

    Joined:
    Apr 5, 2017
    Messages:
    58
    Likes Received:
    33
    thanks
     
    Monsy likes this.
  4. Rhapsonyx

    Rhapsonyx Active Member

    Joined:
    May 14, 2015
    Messages:
    579
    Likes Received:
    39
    Thank you!!! :D :D :D :D :D :D :D
     
  5. Danny82

    Danny82 Well-Known Member

    Joined:
    May 28, 2016
    Messages:
    2,236
    Likes Received:
    594
    wahts taht
     
    hanshermann likes this.
  6. zar

    zar Member

    Joined:
    Feb 26, 2015
    Messages:
    200
    Likes Received:
    17
    thanks
     
  7. master468

    master468 Active Member

    Joined:
    Feb 1, 2017
    Messages:
    314
    Likes Received:
    34
  8. hugonicolas

    hugonicolas Active Member

    Joined:
    Aug 25, 2017
    Messages:
    661
    Likes Received:
    27
  9. BlankFormatted

    BlankFormatted Member

    Joined:
    Nov 18, 2015
    Messages:
    222
    Likes Received:
    7
  10. error1993

    error1993 New Member

    Joined:
    Nov 15, 2017
    Messages:
    4
    Likes Received:
    0
    amooooooo
     
  11. vanessa Grac

    vanessa Grac Member

    Joined:
    Jun 13, 2017
    Messages:
    58
    Likes Received:
    6
    Thank You! ;)
     
  12. Leo calderon

    Leo calderon Member

    Joined:
    Nov 9, 2017
    Messages:
    159
    Likes Received:
    8
    Wooooow t
    Hank
    ssk
     
  13. nachostripped

    nachostripped Active Member

    Joined:
    Feb 5, 2015
    Messages:
    472
    Likes Received:
    44
  14. Amauri Luiz

    Amauri Luiz Well-Known Member

    Joined:
    Jan 14, 2014
    Messages:
    1,708
    Likes Received:
    63
  15. Matias182

    Matias182 Member

    Joined:
    Jul 17, 2017
    Messages:
    101
    Likes Received:
    1
  16. jose luis

    jose luis Member

    Joined:
    Nov 25, 2013
    Messages:
    359
    Likes Received:
    17
    thanks !
     
  17. Luciano Miiller Junior

    Luciano Miiller Junior Active Member

    Joined:
    Jul 7, 2014
    Messages:
    181
    Likes Received:
    153
  18. holiday

    holiday New Member

    Joined:
    Dec 5, 2017
    Messages:
    18
    Likes Received:
    3
    thanks
     
  19. Dilson Nunes

    Dilson Nunes Active Member

    Joined:
    Sep 21, 2014
    Messages:
    394
    Likes Received:
    60
  20. luismolinanyc

    luismolinanyc Active Member

    Joined:
    May 17, 2016
    Messages:
    867
    Likes Received:
    32
  21. fendyzachariey

    fendyzachariey Member

    Joined:
    Jun 23, 2017
    Messages:
    314
    Likes Received:
    3