SDTV Madonna - (Re - Invention World Tour) (The Final Edition)

Discussion in 'SD Live Performances' started by hanshermann, Oct 11, 2017.

  1. hanshermann

    hanshermann Well-Known Member Uploader

    Joined:
    Aug 24, 2016
    Messages:
    5,240
    Likes Received:
    4,919
    [​IMG]

    Madonna - (Re - Invention World Tour) (The Final Edition)

    Code:
    General
    Complete name               : Madonna -  (Re - Invention World Tour) (The Final Edition).avi
    Format                      : AVI
    Format/Info                 : Audio Video Interleave
    Format profile              : OpenDML
    File size                   : 3.25 GiB
    Duration                    : 1 h 52 min
    Overall bit rate            : 4 125 kb/s
    Writing application         : Lavf56.36.100
    
    Video
    ID                          : 0
    Format                      : AVC
    Format/Info                 : Advanced Video Codec
    Format profile              : [email protected]
    Format settings, CABAC      : No
    Format settings, ReFrames   : 2 frames
    Codec ID                    : H264
    Duration                    : 1 h 52 min
    Bit rate                    : 4 000 kb/s
    Width                       : 852 pixels
    Height                      : 480 pixels
    Display aspect ratio        : 16:9
    Frame rate mode             : Variable
    Frame rate                  : 25.000 FPS
    Color space                 : YUV
    Chroma subsampling          : 4:2:0
    Bit depth                   : 8 bits
    Scan type                   : Progressive
    Bits/(Pixel*Frame)          : 0.391
    Stream size                 : 3.14 GiB (97%)
    Writing library             : x264 core 148 r2579 73ae2d1
    
    
    Audio
    ID                          : 1
    Format                      : MPEG Audio
    Format version              : Version 1
    Format profile              : Layer 3
    Mode                        : Joint stereo
    Mode extension              : MS Stereo
    Codec ID                    : 55
    Codec ID/Hint               : MP3
    Duration                    : 1 h 52 min
    Bit rate mode               : Constant
    Bit rate                    : 128 kb/s
    Channel(s)                  : 2 channels
    Sampling rate               : 44.1 kHz
    Compression mode            : Lossy
    Stream size                 : 103 MiB (3%)
    Alignment                   : Aligned on interleaves
    Interleave, duration        : 26  ms (0.65 video frame)
    Interleave, preload duratio : 26  ms
    
    Hidden Content:
    You must either reply or click 'Like' to see the hidden information contained here.
     
  2. Loading...


  3. sgkolmogorov

    sgkolmogorov Member

    Joined:
    Apr 5, 2017
    Messages:
    46
    Likes Received:
    24
    thanks
     
    Monsy likes this.
  4. Rhapsonyx

    Rhapsonyx Active Member

    Joined:
    May 14, 2015
    Messages:
    560
    Likes Received:
    37
    Thank you!!! :D :D :D :D :D :D :D
     
  5. Danny82

    Danny82 Well-Known Member

    Joined:
    May 28, 2016
    Messages:
    2,083
    Likes Received:
    547
    wahts taht
     
    hanshermann likes this.
  6. zar

    zar Member

    Joined:
    Feb 26, 2015
    Messages:
    190
    Likes Received:
    14
    thanks
     
  7. master468

    master468 Member

    Joined:
    Feb 1, 2017
    Messages:
    262
    Likes Received:
    22
  8. hugonicolas

    hugonicolas Member

    Joined:
    Aug 25, 2017
    Messages:
    371
    Likes Received:
    19
  9. BlankFormatted

    BlankFormatted Member

    Joined:
    Nov 18, 2015
    Messages:
    195
    Likes Received:
    5
  10. error1993

    error1993 New Member

    Joined:
    Nov 15, 2017
    Messages:
    4
    Likes Received:
    0
    amooooooo
     
  11. vanessa Grac

    vanessa Grac Member

    Joined:
    Jun 13, 2017
    Messages:
    57
    Likes Received:
    5
    Thank You! ;)
     
  12. Leo calderon

    Leo calderon Member

    Joined:
    Nov 9, 2017
    Messages:
    93
    Likes Received:
    2
    Wooooow t
    Hank
    ssk
     
  13. nachostripped

    nachostripped Active Member

    Joined:
    Feb 5, 2015
    Messages:
    439
    Likes Received:
    33
  14. Amauri Luiz

    Amauri Luiz Well-Known Member

    Joined:
    Jan 14, 2014
    Messages:
    1,528
    Likes Received:
    51
  15. Matias182

    Matias182 Member

    Joined:
    Jul 17, 2017
    Messages:
    82
    Likes Received:
    0
  16. jose luis

    jose luis Member

    Joined:
    Nov 25, 2013
    Messages:
    306
    Likes Received:
    15
    thanks !
     
  17. Luciano Miiller Junior

    Luciano Miiller Junior Active Member

    Joined:
    Jul 7, 2014
    Messages:
    173
    Likes Received:
    145