Madonna - Like a Prayer (VIVAHD-1080i-DD2.0-Djodjara)-HDMania

Discussion in 'VIVA HD' started by Djodjara, Oct 25, 2014.

  1. Djodjara

    Djodjara Gwen Fan Capper

    Joined:
    Sep 6, 2014
    Messages:
    757
    Likes Received:
    1,361
    Madonna - Like a Prayer (VIVA HD - 1080i - Djodjara)

    [​IMG]
    [​IMG]

    General:
    ID : 95 (0x5F)
    Format : MPEG-TS
    File size : 354 MiB
    Duration : 5mn 31s
    Overall bit rate mode : Variable
    Overall bit rate : 8 965 Kbps

    Video:
    ID : 528 (0x210)
    Menu ID : 9067 (0x236B)
    Format : AVC
    Format/Info : Advanced Video Codec
    Format profile : [email protected]
    Format settings, CABAC : Yes
    Format settings, ReFrames : 3 frames
    Codec ID : 27
    Duration : 5mn 31s
    Bit rate : 8 069 Kbps
    Width : 1 920 pixels
    Height : 1 080 pixels
    Display aspect ratio : 16:9
    Frame rate : 25.000 fps
    Standard : Component
    Color space : YUV
    Chroma subsampling : 4:2:0
    Bit depth : 8 bits
    Scan type : Interlaced
    Bits/(Pixel*Frame) : 0.156
    Stream size : 319 MiB (90%)
    Color primaries : BT.709
    Transfer characteristics : BT.709
    Matrix coefficients : BT.709

    Audio #1:
    ID : 529 (0x211)
    Menu ID : 9067 (0x236B)
    Format : MPEG Audio
    Format version : Version 1
    Format profile : Layer 2
    Codec ID : 4
    Duration : 5mn 31s
    Bit rate mode : Constant
    Bit rate : 256 Kbps
    Channel count : 2 channels
    Sampling rate : 48.0 KHz
    Compression mode : Lossy
    Delay relative to video : 112ms
    Stream size : 10.1 MiB (3%)
    Language : German

    Audio #2:
    ID : 539 (0x21B)
    Menu ID : 9067 (0x236B)
    Format : AC-3
    Format/Info : Audio Coding 3
    Mode extension : HI (hearing impaired)
    Format settings, Endianness : Big
    Codec ID : 6
    Duration : 5mn 31s
    Bit rate mode : Constant
    Bit rate : 192 Kbps
    Channel count : 2 channels
    Channel positions : Front: L R
    Sampling rate : 48.0 KHz
    Bit depth : 16 bits
    Compression mode : Lossy
    Delay relative to video : 148ms
    Stream size : 7.58 MiB (2%)
    Language : German

    Hidden Content:
    You must reply before you can see the hidden data contained here.
     
    lyana94, Cookie1303, Thassyo and 8 others like this.
  2. rhea

    rhea Well-Known Member

    Joined:
    Jan 6, 2014
    Messages:
    6,213
    Likes Received:
    515
    thank you so much!
     
  3. DETOX

    DETOX K-POP fan ♡ V . I . P. Uploader

    Joined:
    Feb 20, 2014
    Messages:
    2,997
    Likes Received:
    20,096
    Thank you so much! :happy:
     
  4. Escalade1080p

    Escalade1080p Member

    Joined:
    Nov 20, 2013
    Messages:
    508
    Likes Received:
    14
  5. MaggieS

    MaggieS Active Member

    Joined:
    Sep 19, 2014
    Messages:
    990
    Likes Received:
    42
    i love Madonna:love:
    thank you:)
     
  6. Crusha

    Crusha Well-Known Member Capper

    Joined:
    Oct 15, 2014
    Messages:
    2,350
    Likes Received:
    2,415
    THANKS
     
  7. lifevirgin

    lifevirgin Active Member

    Joined:
    Feb 15, 2014
    Messages:
    366
    Likes Received:
    31
    Thank you
     
  8. Osh Şarif

    Osh Şarif Well-Known Member

    Joined:
    Dec 29, 2013
    Messages:
    351
    Likes Received:
    726
    Like a Prayer is one of the most beautiful songs of all time <3 BIG THANKS
     
  9. Chris

    Chris Member

    Joined:
    Oct 19, 2013
    Messages:
    603
    Likes Received:
    17
    Thank you
     
  10. ytyh

    ytyh Member

    Joined:
    Mar 30, 2014
    Messages:
    432
    Likes Received:
    4
    Thank you!
     
  11. azamusic

    azamusic Active Member Capper

    Joined:
    Dec 6, 2013
    Messages:
    566
    Likes Received:
    147
    thanks
     
  12. airj23

    airj23 Member

    Joined:
    Apr 17, 2014
    Messages:
    108
    Likes Received:
    0
    Thanks!!!
     
  13. Albano Salinas

    Albano Salinas Well-Known Member

    Joined:
    Nov 6, 2014
    Messages:
    467
    Likes Received:
    955
    wow thanks!.-
     
  14. dahill

    dahill Member

    Joined:
    Apr 4, 2014
    Messages:
    33
    Likes Received:
    0
    thanks
     
  15. Dyoggo

    Dyoggo Member

    Joined:
    May 14, 2014
    Messages:
    599
    Likes Received:
    10
    THANKS
     
  16. masonweller

    masonweller Member

    Joined:
    Nov 16, 2014
    Messages:
    69
    Likes Received:
    11
    thanks
     
  17. arnold

    arnold Member

    Joined:
    Oct 29, 2014
    Messages:
    238
    Likes Received:
    3
  18. boy

    boy Member

    Joined:
    Dec 19, 2013
    Messages:
    356
    Likes Received:
    10
    thx
     
  19. TrendMusic

    TrendMusic Well-Known Member

    Joined:
    Oct 7, 2013
    Messages:
    1,225
    Likes Received:
    80
  20. Thassyo

    Thassyo Well-Known Member

    Joined:
    Oct 9, 2013
    Messages:
    2,251
    Likes Received:
    852
    thanks