WEB-RiP Madonna - I'm Going to Tell You a Secret [2005]

Discussion in 'Documentaries' started by Dfrazzer, Jan 22, 2017.

  1. wickedtongue

    wickedtongue Member

    Joined:
    Dec 18, 2015
    Messages:
    76
    Likes Received:
    1
  2. gaelloko

    gaelloko Active Member

    Joined:
    Sep 27, 2014
    Messages:
    204
    Likes Received:
    63
    been waiting for this so longs. thanks a lot"mber: 106"][​IMG] [​IMG] [​IMG] [​IMG]

    Code:
    General
    Complete name : D:\Madonna - I'm Going to Tell You a Secret [2005].mp4
    Format : MPEG-4
    Format profile : Base Media
    Codec ID : isom (isom/iso2/avc1/mp41)
    File size : 1.88 GiB
    Duration : 2 h 6 min
    Overall bit rate mode : Variable
    Overall bit rate : 2 132 kb/s
    Writing application : Lavf56.25.101
    
    Video
    ID : 1
    Format : AVC
    Format/Info : Advanced Video Codec
    Format profile : High@L3.1
    Format settings, CABAC : Yes
    Format settings, ReFrames : 5 frames
    Codec ID : avc1
    Codec ID/Info : Advanced Video Coding
    Duration : 2 h 6 min
    Bit rate : 2 000 kb/s
    Width : 1 280 pixels
    Height : 720 pixels
    Display aspect ratio : 16:9
    Frame rate mode : Constant
    Frame rate : 25.000 FPS
    Color space : YUV
    Chroma subsampling : 4:2:0
    Bit depth : 8 bits
    Scan type : Progressive
    Bits/(Pixel*Frame) : 0.087
    Stream size : 1.76 GiB (94%)
    Writing library : x264 core 146 r2538 121396c
    Encoding settings : cabac=1 / ref=5 / deblock=1:0:0 / analyse=0x3:0x113 / me=umh / subme=8 / psy=1 / psy_rd=1.00:0.00 / mixed_ref=1 / me_range=8 / chroma_me=1 / trellis=1 / 8x8dct=1 / cqm=0 / deadzone=21,11 / fast_pskip=1 / chroma_qp_offset=-2 / threads=4 / lookahead_threads=1 / sliced_threads=0 / nr=0 / decimate=1 / interlaced=0 / bluray_compat=0 / constrained_intra=0 / bframes=3 / b_pyramid=2 / b_adapt=2 / b_bias=0 / direct=3 / weightb=1 / open_gop=0 / weightp=2 / keyint=250 / keyint_min=25 / scenecut=40 / intra_refresh=0 / rc_lookahead=50 / rc=2pass / mbtree=1 / bitrate=2000 / ratetol=1.0 / qcomp=0.60 / qpmin=0 / qpmax=69 / qpstep=4 / cplxblur=20.0 / qblur=0.5 / vbv_maxrate=3000 / vbv_bufsize=8000 / nal_hrd=none / filler=0 / ip_ratio=1.40 / aq=1:1.00
    
    Audio
    ID : 2
    Format : AAC
    Format/Info : Advanced Audio Codec
    Format profile : LC
    Codec ID : 40
    Duration : 2 h 6 min
    Duration_LastFrame : -20 ms
    Bit rate mode : Variable
    Bit rate : 128 kb/s
    Maximum bit rate : 3 000 kb/s
    Channel(s) : 2 channels
    Channel positions : Front: L R
    Sampling rate : 44.1 kHz
    Frame rate : 43.066 FPS (1024 spf)
    Compression mode : Lossy
    Stream size : 116 MiB (6%)
    Default : Yes
    Alternate group : 1
    
    ***Hidden content cannot be quoted.***

    Ripped by me.[/QUOTE]
     
    Whosvinnicius and stardustbr like this.
  3. lim

    lim Well-Known Member

    Joined:
    Nov 8, 2013
    Messages:
    2,032
    Likes Received:
    76
    thanks
     
  4. stardustbr

    stardustbr New Member

    Joined:
    Dec 10, 2016
    Messages:
    7
    Likes Received:
    0
    Thank you!
    [​IMG]
     
  5. master468

    master468 Active Member

    Joined:
    Feb 1, 2017
    Messages:
    396
    Likes Received:
    58
  6. blakenichol

    blakenichol Member

    Joined:
    Jun 13, 2017
    Messages:
    43
    Likes Received:
    0
  7. mjh13578

    mjh13578 Member

    Joined:
    Dec 7, 2013
    Messages:
    421
    Likes Received:
    13
    Thank you!:victory:
     
  8. pierodolores29

    pierodolores29 Member

    Joined:
    Oct 5, 2016
    Messages:
    105
    Likes Received:
    4
  9. nachostripped

    nachostripped Active Member

    Joined:
    Feb 5, 2015
    Messages:
    513
    Likes Received:
    117
    thank you
     
  10. monalisa

    monalisa Member

    Joined:
    Apr 24, 2016
    Messages:
    52
    Likes Received:
    1
  11. rico

    rico Member

    Joined:
    Nov 19, 2016
    Messages:
    269
    Likes Received:
    4
    thanks
     
  12. Whosvinnicius

    Whosvinnicius Member

    Joined:
    Jul 14, 2015
    Messages:
    30
    Likes Received:
    4
    [/QUOTE]
    thankss
     
  13. lex

    lex Member

    Joined:
    Jan 18, 2016
    Messages:
    234
    Likes Received:
    7
    thanks
     
  14. mvlmoraes

    mvlmoraes Well-Known Member Donor

    Joined:
    Nov 22, 2013
    Messages:
    2,626
    Likes Received:
    367
    thanks
     
  15. madgefan

    madgefan Member

    Joined:
    Feb 4, 2018
    Messages:
    176
    Likes Received:
    4
    thanks
     
  16. Ozze

    Ozze Member

    Joined:
    May 28, 2018
    Messages:
    139
    Likes Received:
    3
    Thanks.
     
  17. mevolution

    mevolution Member

    Joined:
    Jul 21, 2016
    Messages:
    80
    Likes Received:
    7
    is the link still alive?
     
  18. Pirilor

    Pirilor Member

    Joined:
    Apr 28, 2018
    Messages:
    47
    Likes Received:
    1
    Noice