Madonna - Give it 2 Me (Feat. Pharell) MTV HD1080i

Discussion in 'MTV HD' started by Osh Şarif, Mar 20, 2014.

  1. Osh Şarif

    Osh Şarif Well-Known Member

    Joined:
    Dec 29, 2013
    Messages:
    351
    Likes Received:
    721
    Madonna - Give it 2 Me (Feat. Pharell) MTV HD1080i

    [​IMG]

    [​IMG]

    [​IMG]

    [​IMG]


    General
    ID : 6 (0x6)
    Format : MPEG-TS
    File size : 326 MiB
    Duration : 4mn 8s
    Overall bit rate mode : Variable
    Overall bit rate : 11.0 Mbps

    Video
    ID : 1011 (0x3F3)
    Menu ID : 1 (0x1)
    Format : AVC
    Format/Info : Advanced Video Codec
    Format profile : [email protected]
    Format settings, CABAC : Yes
    Format settings, ReFrames : 4 frames
    Codec ID : 27
    Duration : 4mn 8s
    Bit rate : 10.1 Mbps
    Width : 1 920 pixels
    Height : 1 080 pixels
    Display aspect ratio : 16:9
    Frame rate : 25.000 fps
    Color space : YUV
    Chroma subsampling : 4:2:0
    Bit depth : 8 bits
    Scan type : Interlaced
    Scan order : Top Field First
    Bits/(Pixel*Frame) : 0.194
    Stream size : 298 MiB (92%)
    Language : English
    Color primaries : BT.709
    Transfer characteristics : BT.709
    Matrix coefficients : BT.709

    Audio
    ID : 1013 (0x3F5)
    Menu ID : 1 (0x1)
    Format : AC-3
    Format/Info : Audio Coding 3
    Mode extension : CM (complete main)
    Format settings, Endianness : Big
    Codec ID : 129
    Duration : 4mn 8s
    Bit rate mode : Constant
    Bit rate : 384 Kbps
    Channel(s) : 2 channels
    Channel positions : Front: L R
    Sampling rate : 48.0 KHz
    Bit depth : 16 bits
    Compression mode : Lossy
    Delay relative to video : 57ms
    Stream size : 11.4 MiB (3%)
    Language : English

    Download links ( No password + Enjoy )

    Hidden Content:
    You must either reply or click 'Like' to see the hidden information contained here.
     
    Last edited by a moderator: Apr 22, 2015
    lim, tn5656, chitarraspee and 12 others like this.
  2. Loading...


  3. mike gunen

    mike gunen Member

    Joined:
    Nov 9, 2013
    Messages:
    782
    Likes Received:
    20
    thanks
     
    Osh Şarif likes this.
  4. SpyrosMonster

    SpyrosMonster Active Member

    Joined:
    Jan 27, 2014
    Messages:
    698
    Likes Received:
    120
    thanks
     
  5. s1sav

    s1sav Member

    Joined:
    Feb 27, 2014
    Messages:
    146
    Likes Received:
    8
    Thank you.
     
  6. Osh Şarif

    Osh Şarif Well-Known Member

    Joined:
    Dec 29, 2013
    Messages:
    351
    Likes Received:
    721
    Welcome All :)
     
  7. Dyoggo

    Dyoggo Member

    Joined:
    May 14, 2014
    Messages:
    598
    Likes Received:
    10
    thanks
     
  8. nostalgicnation01

    nostalgicnation01 Member

    Joined:
    Jul 16, 2014
    Messages:
    50
    Likes Received:
    0
  9. fleisch

    fleisch Member

    Joined:
    Jul 23, 2014
    Messages:
    16
    Likes Received:
    0
  10. slill

    slill Active Member

    Joined:
    Jul 25, 2014
    Messages:
    1,028
    Likes Received:
    14
    thanks for sharing
     
  11. jessy100

    jessy100 Member

    Joined:
    Aug 12, 2014
    Messages:
    32
    Likes Received:
    0
  12. PedroCorrea

    PedroCorrea Active Member

    Joined:
    Aug 21, 2014
    Messages:
    358
    Likes Received:
    38
  13. Dreamer

    Dreamer Lana Del Rey ♥ Capper V . I . P. Uploader

    Joined:
    Dec 4, 2014
    Messages:
    2,653
    Likes Received:
    3,180
    Thanks
     
  14. Albano Salinas

    Albano Salinas Well-Known Member

    Joined:
    Nov 6, 2014
    Messages:
    464
    Likes Received:
    931
  15. jorge7m

    jorge7m Member

    Joined:
    Sep 27, 2014
    Messages:
    28
    Likes Received:
    0
    DEAD LINK. REUPLOAD PLEASE
     
  16. tetard

    tetard Well-Known Member

    Joined:
    Mar 29, 2014
    Messages:
    591
    Likes Received:
    1,304
    Thank you
     
  17. adam dark

    adam dark Video Music Lover <3 V . I . P.

    Joined:
    Dec 5, 2013
    Messages:
    2,565
    Likes Received:
    4,466
    thank you! But links are dead, upload again please! :(
     
  18. Joseph1020

    Joseph1020 Member

    Joined:
    May 26, 2015
    Messages:
    65
    Likes Received:
    0
    thanks
     
  19. brian182

    brian182 Well-Known Member

    Joined:
    Oct 14, 2013
    Messages:
    1,730
    Likes Received:
    59
    thanks!! lol
     
  20. alberto piper naro

    alberto piper naro Member

    Joined:
    Jul 4, 2015
    Messages:
    467
    Likes Received:
    16
    muchas gracias .....
     
  21. Himperios

    Himperios Member

    Joined:
    Oct 11, 2015
    Messages:
    285
    Likes Received:
    18
    good