Madonna ft. Nicki Minaj - Bitch Im Madonna (Multishow.HD.DD5.1)-Crusha

Discussion in 'MULTISHOW HD' started by Crusha, Jun 23, 2015.

  1. Crusha

    Crusha Well-Known Member Capper

    Joined:
    Oct 15, 2014
    Messages:
    2,350
    Likes Received:
    2,292
    [​IMG]
    [​IMG]
    [​IMG]
    [​IMG]

    General
    ID : 1 (0x1)
    Complete name : Madonna ft. Nicki Minaj - Bitch Im Madonna (Multishow.HD.DD5.1)-Crusha.ts
    Format : MPEG-TS
    File size : 119 MiB
    Duration : 4mn 2s
    Overall bit rate mode : Variable
    Overall bit rate : 4 125 Kbps

    Video
    ID : 2593 (0xA21)
    Menu ID : 2542 (0x9EE)
    Format : AVC
    Format/Info : Advanced Video Codec
    Format profile : [email protected]
    Format settings, CABAC : Yes
    Format settings, ReFrames : 4 frames
    Codec ID : 27
    Duration : 4mn 2s
    Bit rate : 3 533 Kbps
    Width : 1 920 pixels
    Height : 1 080 pixels
    Display aspect ratio : 16:9
    Frame rate : 29.970 fps
    Standard : Component
    Color space : YUV
    Chroma subsampling : 4:2:0
    Bit depth : 8 bits
    Scan type : MBAFF
    Scan order : Top Field First
    Bits/(Pixel*Frame) : 0.057
    Stream size : 102 MiB (86%)
    Color primaries : BT.709
    Transfer characteristics : BT.709
    Matrix coefficients : BT.709
    Color range : Limited

    Audio
    ID : 3593 (0xE09)
    Menu ID : 2542 (0x9EE)
    Format : AC-3
    Format/Info : Audio Coding 3
    Mode extension : CM (complete main)
    Format settings, Endianness : Big
    Codec ID : 6
    Duration : 4mn 2s
    Bit rate mode : Constant
    Bit rate : 384 Kbps
    Channel(s) : 6 channels
    Channel positions : Front: L C R, Side: L R, LFE
    Sampling rate : 48.0 KHz
    Bit depth : 16 bits
    Compression mode : Lossy
    Stream size : 11.1 MiB (9%)
    Language : English

    Hidden Content:
    You must either reply or click 'Like' to see the hidden information contained here.
    Password: crusha

    Cap by Me :)
     
    ifuseekme, Snorom6, rhea and 2 others like this.
  2. Loading...


  3. MaggieS

    MaggieS Active Member

    Joined:
    Sep 19, 2014
    Messages:
    972
    Likes Received:
    39
    tnx u:blackheart:
     
  4. zar

    zar Member

    Joined:
    Feb 26, 2015
    Messages:
    150
    Likes Received:
    7
    thank you!!! :)
     
  5. Osh Şarif

    Osh Şarif Well-Known Member

    Joined:
    Dec 29, 2013
    Messages:
    349
    Likes Received:
    707
    Thanks dear
     
  6. femmemonsters

    femmemonsters Member

    Joined:
    Oct 8, 2015
    Messages:
    499
    Likes Received:
    18
    thank you
     
  7. maurohachen

    maurohachen Member

    Joined:
    Feb 24, 2015
    Messages:
    396
    Likes Received:
    17
    good hdtv
     
  8. luigi1987

    luigi1987 Member

    Joined:
    Sep 2, 2016
    Messages:
    110
    Likes Received:
    4
    thanks
     
  9. video60fps

    video60fps Member

    Joined:
    Nov 3, 2016
    Messages:
    63
    Likes Received:
    0
    hello
     
  10. alterion

    alterion Member

    Joined:
    May 7, 2016
    Messages:
    412
    Likes Received:
    17
    thanks
     
  11. kbabr

    kbabr New Member

    Joined:
    Dec 20, 2015
    Messages:
    7
    Likes Received:
    0
    thanks