SDTV Madonna feat. Britney Spears & Christina Aguilera - Like A Virgin + Hollywood (VMA 2003) HQ VOB

Discussion in 'SD Live Performances' started by hanshermann, Aug 29, 2017.

  1. anunnaki

    anunnaki Member

    Joined:
    Nov 19, 2016
    Messages:
    296
    Likes Received:
    8
    thanks
     
  2. vjdanilor

    vjdanilor Member

    Joined:
    Nov 21, 2014
    Messages:
    671
    Likes Received:
    24
  3. Amauri Luiz

    Amauri Luiz Well-Known Member

    Joined:
    Jan 14, 2014
    Messages:
    1,528
    Likes Received:
    51
    Thank you so much!
     
  4. zuluka

    zuluka Member

    Joined:
    Jul 9, 2016
    Messages:
    848
    Likes Received:
    13
    thanks
     
  5. alterion

    alterion Member

    Joined:
    May 7, 2016
    Messages:
    525
    Likes Received:
    22
  6. nenad

    nenad Member

    Joined:
    Sep 25, 2014
    Messages:
    54
    Likes Received:
    0
    Thanks
     
  7. Luis Almeida

    Luis Almeida Active Member

    Joined:
    Feb 4, 2015
    Messages:
    584
    Likes Received:
    36
    thank you
     
  8. FábioC

    FábioC Member

    Joined:
    Nov 28, 2017
    Messages:
    38
    Likes Received:
    3
    thanks
     
  9. fred

    fred Member

    Joined:
    Nov 25, 2015
    Messages:
    331
    Likes Received:
    11
    obrigado
     
  10. Joseph17

    Joseph17 Member

    Joined:
    Aug 1, 2014
    Messages:
    116
    Likes Received:
    2
    thanks <3
     
  11. theclimb

    theclimb Active Member

    Joined:
    Dec 16, 2014
    Messages:
    778
    Likes Received:
    141
    thanks
     
  12. jack_black

    jack_black Well-Known Member

    Joined:
    Feb 16, 2014
    Messages:
    889
    Likes Received:
    738
    Thank you!
     
  13. Mokeco

    Mokeco Member

    Joined:
    Jul 11, 2015
    Messages:
    213
    Likes Received:
    12
    thanks
     
  14. Speedy25

    Speedy25 Member

    Joined:
    Feb 24, 2017
    Messages:
    30
    Likes Received:
    0
    Thank you!
     
  15. bjellerud

    bjellerud Member

    Joined:
    Jan 7, 2018
    Messages:
    152
    Likes Received:
    4
    thanks
     
  16. allynat

    allynat Member

    Joined:
    Dec 25, 2017
    Messages:
    363
    Likes Received:
    6
    Thank you
     
  17. miguelmr87

    miguelmr87 Active Member

    Joined:
    Dec 20, 2013
    Messages:
    900
    Likes Received:
    213
    ther's a propper ntsc no logo version
     
  18. Clepsodra

    Clepsodra New Member

    Joined:
    Jan 15, 2017
    Messages:
    27
    Likes Received:
    0
    [​IMG]
    Madonna feat. Britney Spears & Christina Aguilera - Like A Virgin + Hollywood (VMA 2003) HQ VOB

    Code:
    General
    Complete name :Madonna feat. Britney Spears & Christina Aguilera with Missy Elliott - Like A Virgin + Hollywood (VMA 2003) HQ VOB\Like A Virgin & Hollywood (MTV VMA2003) HQ.VOB
    Format : MPEG-PS
    File size : 371 MiB
    Duration : 5 min 29 s
    Overall bit rate mode : Variable
    Overall bit rate : 9 441 kb/s
    Writing library : encoded by TMPGEnc (ver. 2.54.37.135)

    Video
    ID : 224 (0xE0)
    Format : MPEG Video
    Format version : Version 2
    Format profile : [email protected]
    Format settings, BVOP : Yes
    Format settings, Matrix : Custom
    Format settings, GOP : Variable
    Format settings, picture st : Frame
    Duration : 5 min 29 s
    Bit rate mode : Variable
    Bit rate : 7 717 kb/s
    Maximum bit rate : 9 800 kb/s
    Width : 720 pixels
    Height : 576 pixels
    Display aspect ratio : 4:3
    Frame rate : 25.000 FPS
    Standard : PAL
    Color space : YUV
    Chroma subsampling : 4:2:0
    Bit depth : 8 bits
    Scan type : Interlaced
    Scan order : Bottom Field First
    Compression mode : Lossy
    Bits/(Pixel*Frame) : 0.744
    Time code of first frame : 00:00:00:00
    Time code source : Group of pictures header
    GOP, Open/Closed : Open
    GOP, Open/Closed of first f : Closed
    Stream size : 303 MiB (82%)
    Writing library : TMPGEnc 2.54.37.135
    Color primaries : BT.601 PAL
    Transfer characteristics : BT.470 System B, BT.470 System G
    Matrix coefficients : BT.601

    Audio
    ID : 189 (0xBD)-160 (0xA0)
    Format : PCM
    Format settings, Endianness : Big
    Format settings, Sign : Signed
    Muxing mode : DVD-Video
    Duration : 5 min 28 s
    Bit rate mode : Constant
    Bit rate : 1 536 kb/s
    Channel(s) : 2 channels
    Sampling rate : 48.0 kHz
    Bit depth : 16 bits
    Stream size : 60.2 MiB (16%)
    Hidden Content:
    You must reply before you can see the hidden data contained here.