SDTV Madonna feat. Britney Spears & Christina Aguilera - Like A Virgin + Hollywood (VMA 2003) HQ VOB

Discussion in 'SD Live Performances' started by hanshermann, Aug 29, 2017.

  1. hanshermann

    hanshermann Well-Known Member Uploader

    Joined:
    Aug 24, 2016
    Messages:
    7,543
    Likes Received:
    13,440
    [​IMG]

    Madonna feat. Britney Spears & Christina Aguilera - Like A Virgin + Hollywood (VMA 2003) HQ VOB

    Code:
    General
    Complete name               :Madonna feat. Britney Spears & Christina Aguilera with Missy Elliott - Like A Virgin + Hollywood (VMA 2003) HQ VOB\Like A Virgin & Hollywood (MTV VMA2003) HQ.VOB
    Format                      : MPEG-PS
    File size                   : 371 MiB
    Duration                    : 5 min 29 s
    Overall bit rate mode       : Variable
    Overall bit rate            : 9 441 kb/s
    Writing library             : encoded by TMPGEnc (ver. 2.54.37.135)
    
    Video
    ID                          : 224 (0xE0)
    Format                      : MPEG Video
    Format version              : Version 2
    Format profile              : Main@Main
    Format settings, BVOP       : Yes
    Format settings, Matrix     : Custom
    Format settings, GOP        : Variable
    Format settings, picture st : Frame
    Duration                    : 5 min 29 s
    Bit rate mode               : Variable
    Bit rate                    : 7 717 kb/s
    Maximum bit rate            : 9 800 kb/s
    Width                       : 720 pixels
    Height                      : 576 pixels
    Display aspect ratio        : 4:3
    Frame rate                  : 25.000 FPS
    Standard                    : PAL
    Color space                 : YUV
    Chroma subsampling          : 4:2:0
    Bit depth                   : 8 bits
    Scan type                   : Interlaced
    Scan order                  : Bottom Field First
    Compression mode            : Lossy
    Bits/(Pixel*Frame)          : 0.744
    Time code of first frame    : 00:00:00:00
    Time code source            : Group of pictures header
    GOP, Open/Closed            : Open
    GOP, Open/Closed of first f : Closed
    Stream size                 : 303 MiB (82%)
    Writing library             : TMPGEnc 2.54.37.135
    Color primaries             : BT.601 PAL
    Transfer characteristics    : BT.470 System B, BT.470 System G
    Matrix coefficients         : BT.601
    
    Audio
    ID                          : 189 (0xBD)-160 (0xA0)
    Format                      : PCM
    Format settings, Endianness : Big
    Format settings, Sign       : Signed
    Muxing mode                 : DVD-Video
    Duration                    : 5 min 28 s
    Bit rate mode               : Constant
    Bit rate                    : 1 536 kb/s
    Channel(s)                  : 2 channels
    Sampling rate               : 48.0 kHz
    Bit depth                   : 16 bits
    Stream size                 : 60.2 MiB (16%)
    Hidden Content:
    You must reply before you can see the hidden data contained here.
     
    Last edited: Apr 14, 2018
  2. Loading...


  3. Danny82

    Danny82 Well-Known Member

    Joined:
    May 28, 2016
    Messages:
    2,483
    Likes Received:
    747
    Thank you so much for sharing!
     
  4. Saint

    Saint WHY HELLO WORLD?

    Joined:
    Sep 22, 2014
    Messages:
    1,204
    Likes Received:
    131
    Thanks
     
  5. 3veronicas

    3veronicas Well-Known Member

    Joined:
    Aug 26, 2016
    Messages:
    2,064
    Likes Received:
    105
    Thanks!
     
  6. Albertography

    Albertography Active Member

    Joined:
    Sep 6, 2016
    Messages:
    239
    Likes Received:
    51
    Thanks!
     
  7. exterminador

    exterminador Well-Known Member

    Joined:
    Jul 3, 2016
    Messages:
    2,570
    Likes Received:
    214
  8. Luciano Miiller Junior

    Luciano Miiller Junior Active Member

    Joined:
    Jul 7, 2014
    Messages:
    194
    Likes Received:
    160
  9. hungquocphan

    hungquocphan Active Member

    Joined:
    Nov 1, 2013
    Messages:
    777
    Likes Received:
    36
    thank my love
     
  10. master468

    master468 Active Member

    Joined:
    Feb 1, 2017
    Messages:
    460
    Likes Received:
    66
    Thanks
     
  11. nino.navy

    nino.navy Well-Known Member

    Joined:
    May 30, 2014
    Messages:
    3,315
    Likes Received:
    195
    thanks a lot for sharing :)
     
  12. carlos69

    carlos69 Well-Known Member

    Joined:
    Dec 17, 2013
    Messages:
    1,309
    Likes Received:
    98
    Thanks
     
  13. Sidney

    Sidney Active Member

    Joined:
    Feb 8, 2017
    Messages:
    307
    Likes Received:
    26
    Thanks
     
  14. danino2200

    danino2200 Member

    Joined:
    Mar 1, 2016
    Messages:
    144
    Likes Received:
    11
    gr
    thankss
     
    Sidney likes this.
  15. keven

    keven Member

    Joined:
    Apr 1, 2015
    Messages:
    440
    Likes Received:
    14
    Thanks!
     
  16. joe007

    joe007 Member

    Joined:
    Apr 5, 2017
    Messages:
    660
    Likes Received:
    22
    I love Christina. Thanks
     
  17. cameltoe123

    cameltoe123 Active Member

    Joined:
    May 31, 2016
    Messages:
    576
    Likes Received:
    77
    thank
    s!!!
     
  18. sebabea

    sebabea Member

    Joined:
    Dec 14, 2016
    Messages:
    227
    Likes Received:
    15
    T
    THANKS!!!!!!!
     
  19. BetaKsi

    BetaKsi Well-Known Member

    Joined:
    Oct 18, 2015
    Messages:
    2,269
    Likes Received:
    593
    Thank you))
     
  20. toonbbv

    toonbbv Well-Known Member

    Joined:
    Dec 11, 2013
    Messages:
    2,289
    Likes Received:
    108
    thank you
     
  21. sergen95

    sergen95 New Member

    Joined:
    Aug 23, 2017
    Messages:
    16
    Likes Received:
    0
    love mdnna