Madonna - American Pie (MTVHD-1080i-DD2.0-CELOBRAZiL)

Discussion in 'MTV HD' started by Snorom6, Jun 7, 2016.

  1. Snorom6

    Snorom6 Well-Known Member V . I . P. Uploader

    Joined:
    Dec 17, 2015
    Messages:
    4,246
    Likes Received:
    7,978
    Madonna - American Pie (MTVHD-1080i-DD2.0-CELOBRAZiL)


    [​IMG]


    Code:
    General
    ID                             : 1 (0x1)
    Complete name                  : Madonna - American Pie (MTVHD-1080i-DD2.0-CELOBRAZiL).ts
    Format                         : MPEG-TS
    File size                      : 250 MiB
    Duration                       : 4mn 32s
    Overall bit rate mode          : Variable
    Overall bit rate               : 7 710 Kbps
    
    Video
    ID                             : 1312 (0x520)
    Menu ID                        : 1 (0x1)
    Format                         : AVC
    Format/Info                    : Advanced Video Codec
    Format profile                 : High@L4
    Format settings, CABAC         : Yes
    Format settings, ReFrames      : 4 frames
    Codec ID                       : 27
    Duration                       : 4mn 32s
    Bit rate                       : 6 941 Kbps
    Width                          : 1 920 pixels
    Height                         : 1 080 pixels
    Display aspect ratio           : 16:9
    Frame rate                     : 29.970 fps
    Color space                    : YUV
    Chroma subsampling             : 4:2:0
    Bit depth                      : 8 bits
    Scan type                      : MBAFF
    Scan order                     : Top Field First
    Bits/(Pixel*Frame)             : 0.112
    Stream size                    : 225 MiB (90%)
    Color range                    : Limited
    Color primaries                : BT.709
    Transfer characteristics       : BT.709
    Matrix coefficients            : BT.709
    
    Audio #1
    ID                             : 1313 (0x521)
    Menu ID                        : 1 (0x1)
    Format                         : AC-3
    Format/Info                    : Audio Coding 3
    Mode extension                 : CM (complete main)
    Format settings, Endianness    : Big
    Codec ID                       : 6
    Duration                       : 4mn 32s
    Bit rate mode                  : Constant
    Bit rate                       : 192 Kbps
    Channel(s)                     : 2 channels
    Channel positions              : Front: L R
    Sampling rate                  : 48.0 KHz
    Compression mode               : Lossy
    Stream size                    : 6.24 MiB (2%)
    Language                       : English
    
    Audio #2
    ID                             : 1314 (0x522)
    Menu ID                        : 1 (0x1)
    Format                         : AC-3
    Format/Info                    : Audio Coding 3
    Mode extension                 : CM (complete main)
    Format settings, Endianness    : Big
    Codec ID                       : 6
    Duration                       : 4mn 32s
    Bit rate mode                  : Constant
    Bit rate                       : 192 Kbps
    Channel(s)                     : 2 channels
    Channel positions              : Front: L R
    Sampling rate                  : 48.0 KHz
    Compression mode               : Lossy
    Stream size                    : 6.24 MiB (2%)
    Language                       : English
    
    Text
    ID                             : 1312 (0x520)-CC4
    Menu ID                        : 1 (0x1)
    Format                         : EIA-608
    Muxing mode                    : SCTE 128 / DTVCC Transport
    Muxing mode, more info         : Muxed in Video #1
    Duration                       : 4mn 32s
    Bit rate mode                  : Constant
    Stream size                    : 0.00 Byte (0%)
    
    

    Hidden Content:
    You must either reply or click 'Like' to see the hidden information contained here.
    Hidden Content:
    You must either reply or click 'Like' to see the hidden information contained here.
     
  2. Loading...


  3. koko_love

    koko_love Well-Known Member

    Joined:
    Jun 3, 2015
    Messages:
    1,025
    Likes Received:
    47
    Thank you :)
     
  4. jimijims

    jimijims Active Member

    Joined:
    Jul 13, 2016
    Messages:
    772
    Likes Received:
    91
    thanks
     
  5. tapions

    tapions Well-Known Member

    Joined:
    Aug 30, 2016
    Messages:
    1,211
    Likes Received:
    118
    gracias
     
  6. gayway

    gayway Well-Known Member

    Joined:
    Mar 10, 2016
    Messages:
    1,131
    Likes Received:
    80
    Thank You!
     
  7. Diego Spears

    Diego Spears Active Member

    Joined:
    Jan 22, 2017
    Messages:
    648
    Likes Received:
    40
    Thank You
     
  8. Diego Spears

    Diego Spears Active Member

    Joined:
    Jan 22, 2017
    Messages:
    648
    Likes Received:
    40
    THANK YOU
     
  9. ethan03

    ethan03 Active Member

    Joined:
    Dec 9, 2016
    Messages:
    375
    Likes Received:
    29
    Thanks
     
  10. ImLoser

    ImLoser Well-Known Member

    Joined:
    May 12, 2016
    Messages:
    3,011
    Likes Received:
    108
    thanks
     
  11. rvden

    rvden Well-Known Member

    Joined:
    Apr 9, 2017
    Messages:
    901
    Likes Received:
    672
    Thank you!
     
  12. wattjunior

    wattjunior Member

    Joined:
    Dec 10, 2015
    Messages:
    381
    Likes Received:
    12
  13. lyana94

    lyana94 Well-Known Member

    Joined:
    Jul 5, 2017
    Messages:
    1,972
    Likes Received:
    70
    tha
    nks
     
  14. 6079

    6079 Member

    Joined:
    Mar 6, 2017
    Messages:
    94
    Likes Received:
    6
    thanks
     
  15. sebabea

    sebabea Active Member

    Joined:
    Dec 14, 2016
    Messages:
    381
    Likes Received:
    48
    THANK YOU QUEEN
     
  16. MissBaris7

    MissBaris7 Well-Known Member

    Joined:
    Jul 16, 2017
    Messages:
    1,063
    Likes Received:
    42
  17. pickdonna

    pickdonna Active Member

    Joined:
    Dec 13, 2016
    Messages:
    863
    Likes Received:
    44
  18. newkomrad

    newkomrad Member

    Joined:
    Jul 12, 2019
    Messages:
    439
    Likes Received:
    20
  19. frederico trivellato

    frederico trivellato Member

    Joined:
    Nov 25, 2018
    Messages:
    224
    Likes Received:
    6