Madonna - 4 Minutes feat Justin Timberlake, Timbaland (AAC-WebMaster-1080p-Abdi)

Discussion in 'WEB MASTER' started by abdi, Oct 28, 2016.

  1. abdi

    abdi Well-Known Member V . I . P. Uploader

    Joined:
    Sep 23, 2014
    Messages:
    1,866
    Likes Received:
    3,671
    Madonna - 4 Minutes feat Justin Timberlake, Timbaland (AAC-WebMaster-1080p-Abdi)
    General
    Complete name : Madonna - 4 Minutes feat Justin Timberlake, Timbaland (AAC-WebMaster-1080p-Abdi).mp4
    Format : MPEG-4
    Format profile : Base Media / Version 2
    Codec ID : mp42
    File size : 155 MiB
    Duration : 4mn 5s
    Overall bit rate mode : Variable
    Overall bit rate : 5 316 Kbps
    Encoded date : UTC 2014-11-19 18:49:34
    Tagged date : UTC 2014-11-19 18:49:39
    ©TIM : 00:00:00:00
    ©TSC : 25
    ©TSZ : 1

    Video
    ID : 1
    Format : AVC
    Format/Info : Advanced Video Codec
    Format profile : [email protected]
    Format settings, CABAC : Yes
    Format settings, ReFrames : 3 frames
    Codec ID : avc1
    Codec ID/Info : Advanced Video Coding
    Duration : 4mn 5s
    Bit rate : 4 994 Kbps
    Width : 1 920 pixels
    Height : 1 080 pixels
    Display aspect ratio : 16:9
    Frame rate mode : Constant
    Frame rate : 25.000 fps
    Standard : PAL
    Color space : YUV
    Chroma subsampling : 4:2:0
    Bit depth : 8 bits
    Scan type : Progressive
    Bits/(Pixel*Frame) : 0.096
    Stream size : 146 MiB (94%)
    Language : English
    Encoded date : UTC 2014-11-19 18:49:34
    Tagged date : UTC 2014-11-19 18:49:34
    Color range : Limited
    Color primaries : BT.709
    Transfer characteristics : BT.709
    Matrix coefficients : BT.709

    Audio
    ID : 2
    Format : AAC
    Format/Info : Advanced Audio Codec
    Format profile : LC
    Codec ID : 40
    Duration : 4mn 5s
    Source duration : 4mn 5s
    Bit rate mode : Variable
    Bit rate : 318 Kbps
    Maximum bit rate : 422 Kbps
    Channel(s) : 2 channels
    Channel positions : Front: L R
    Sampling rate : 44.1 KHz
    Compression mode : Lossy
    Stream size : 9.28 MiB (6%)
    Source stream size : 9.28 MiB (6%)
    Language : English
    Encoded date : UTC 2014-11-19 18:49:34
    Tagged date : UTC 2014-11-19 18:49:34
    mdhd_Duration : 245087
    [​IMG]
    [​IMG]
    Hidden Content:
    You must reply before you can see the hidden data contained here.
     
  2. Pedro Correia

    Pedro Correia Active Member

    Joined:
    Apr 17, 2014
    Messages:
    613
    Likes Received:
    60
    Thank you so much!
     
  3. mov

    mov Well-Known Member

    Joined:
    Aug 29, 2014
    Messages:
    261
    Likes Received:
    352
    Thank you
     
  4. HDMVLover

    HDMVLover Member

    Joined:
    Dec 5, 2015
    Messages:
    344
    Likes Received:
    14
  5. Naner77

    Naner77 Member

    Joined:
    Aug 9, 2016
    Messages:
    182
    Likes Received:
    5
    thanks
     
  6. MarcosMonster

    MarcosMonster Active Member

    Joined:
    May 3, 2014
    Messages:
    159
    Likes Received:
    81
  7. alyssaprimp

    alyssaprimp Well-Known Member

    Joined:
    May 22, 2016
    Messages:
    274
    Likes Received:
    505
  8. adam dark

    adam dark Well-Known Member

    Joined:
    Dec 5, 2013
    Messages:
    2,533
    Likes Received:
    3,961
  9. SpyrosMonster

    SpyrosMonster Active Member

    Joined:
    Jan 27, 2014
    Messages:
    657
    Likes Received:
    109
    Thank you
     
  10. nolynexor88

    nolynexor88 Active Member

    Joined:
    Sep 29, 2015
    Messages:
    871
    Likes Received:
    28
    thank you
     
  11. thankstome

    thankstome Well-Known Member

    Joined:
    Feb 6, 2014
    Messages:
    800
    Likes Received:
    964
    thank you very much
     
    abdi likes this.
  12. lex

    lex Member

    Joined:
    Jan 18, 2016
    Messages:
    177
    Likes Received:
    6
    thanks
     
  13. kalo

    kalo Member

    Joined:
    May 25, 2015
    Messages:
    313
    Likes Received:
    8
    thanks
     
  14. Djodjara

    Djodjara Gwen Fan Capper

    Joined:
    Sep 6, 2014
    Messages:
    659
    Likes Received:
    1,091
    Thanks, Abdi!
     
  15. Snorom6

    Snorom6 Well-Known Member Uploader

    Joined:
    Dec 17, 2015
    Messages:
    4,245
    Likes Received:
    3,744
  16. Danny82

    Danny82 Well-Known Member

    Joined:
    May 28, 2016
    Messages:
    1,061
    Likes Received:
    153
    Thank you!!!
     
  17. khan

    khan Well-Known Member

    Joined:
    May 11, 2014
    Messages:
    1,018
    Likes Received:
    52
    thanks
     
  18. thatonedread

    thatonedread Active Member

    Joined:
    May 4, 2016
    Messages:
    413
    Likes Received:
    28
    Damn man! You're on a roll of late! Really Awesome job you're doing. Thank you so much!!
     
  19. usefuldo

    usefuldo Member

    Joined:
    Dec 19, 2013
    Messages:
    314
    Likes Received:
    21
    thanks!
     
  20. Tadeulife

    Tadeulife Member

    Joined:
    Jan 21, 2016
    Messages:
    345
    Likes Received:
    6