Maddie & Tae - Girl In A Country Song (GACHD) 1080i H.264 DD2.0-HDMania

Discussion in 'GAC HD' started by RGF72K, Jan 23, 2015.

  1. RGF72K

    RGF72K ????? Staff Member Super Moderator

    Joined:
    Oct 1, 2013
    Messages:
    1,020
    Likes Received:
    14,806
    [​IMG] [​IMG] [​IMG] [​IMG] [​IMG] [​IMG] [​IMG] [​IMG] [​IMG]

    General
    ID : 1 (0x1)
    Complete name : Maddie & Tae - Girl In A Country Song (GACHD) 1080i H.264 DD2.0-HDMania.ts
    Format : MPEG-TS
    File size : 366 MiB
    Duration : 3mn 34s
    Overall bit rate mode : Variable
    Overall bit rate : 14.3 Mbps

    Video
    ID : 4113 (0x1011)
    Menu ID : 1 (0x1)
    Format : AVC
    Format/Info : Advanced Video Codec
    Format profile : [email protected]
    Format settings, CABAC : Yes
    Format settings, ReFrames : 4 frames
    Codec ID : 27
    Duration : 3mn 34s
    Bit rate mode : Variable
    Bit rate : 13.2 Mbps
    Maximum bit rate : 20.0 Mbps
    Width : 1 920 pixels
    Height : 1 080 pixels
    Display aspect ratio : 16:9
    Frame rate : 29.970 fps
    Color space : YUV
    Chroma subsampling : 4:2:0
    Bit depth : 8 bits
    Scan type : Interlaced
    Scan order : Top Field First
    Bits/(Pixel*Frame) : 0.212
    Stream size : 338 MiB (92%)
    Color primaries : BT.709
    Transfer characteristics : BT.709
    Matrix coefficients : BT.709
    Color range : Limited

    Audio
    ID : 4352 (0x1100)
    Menu ID : 1 (0x1)
    Format : AC-3
    Format/Info : Audio Coding 3
    Mode extension : CM (complete main)
    Format settings, Endianness : Big
    Codec ID : 129
    Duration : 3mn 34s
    Bit rate mode : Constant
    Bit rate : 384 Kbps
    Channel(s) : 2 channels
    Channel positions : Front: L R
    Sampling rate : 48.0 KHz
    Bit depth : 16 bits
    Compression mode : Lossy
    Stream size : 9.84 MiB (3%)
    Language : English

    Download:
    Hidden Content:
    You must either reply or click 'Like' to see the hidden information contained here.

    Capped by Me :victory:
     
    JasonKay, Vinny, David Paul and 2 others like this.
  2. Zatimi

    Zatimi Active Member

    Joined:
    Aug 27, 2014
    Messages:
    635
    Likes Received:
    77
    thanks a lot
     
  3. rhea

    rhea Well-Known Member

    Joined:
    Jan 6, 2014
    Messages:
    5,676
    Likes Received:
    366
    thank you so much
     
  4. dgnio

    dgnio Well-Known Member

    Joined:
    Jul 7, 2014
    Messages:
    1,644
    Likes Received:
    330
    thanks thanks
     
  5. valtersc

    valtersc Member

    Joined:
    Nov 19, 2014
    Messages:
    148
    Likes Received:
    6
    thanks for share!
     
  6. 777josem

    777josem Well-Known Member V . I . P. Uploader

    Joined:
    Sep 1, 2014
    Messages:
    2,958
    Likes Received:
    1,583
    Thank you! :)
     
  7. multimediafm

    multimediafm Well-Known Member Donor

    Joined:
    Mar 27, 2014
    Messages:
    8,580
    Likes Received:
    368
    Thanks :love:
    Maddie & Tae - Girl In A Country Song (GACHD) 1080i H.264 DD2.0-HDMania
     
  8. bbb777

    bbb777 Member

    Joined:
    Mar 2, 2016
    Messages:
    81
    Likes Received:
    1
    thanks