Luis Fonsi & Demi Lovato - Échame La Culpa VH1HD 1080i HDTV DD2.0 H.264 CELOBRAZiL-HDMania

Discussion in 'VH1 HD' started by CELOBRAZiL, Jan 9, 2018.

  1. CELOBRAZiL

    CELOBRAZiL Well-Known Member Capper V . I . P. Donor

    Joined:
    Oct 2, 2013
    Messages:
    4,248
    Likes Received:
    13,389
    Luis Fonsi & Demi Lovato - Échame La Culpa VH1HD 1080i HDTV DD2.0 H.264 CELOBRAZiL-HDMania

    [​IMG]



    Format : MPEG-TS
    File size : 167 MiB
    Duration : 3mn 20s
    Overall bit rate mode : Variable
    Overall bit rate : 6 964 Kbps

    Video
    ID : 5408 (0x1520)
    Menu ID : 5416 (0x1528)
    Format : AVC
    Format/Info : Advanced Video Codec
    Format profile : [email protected]
    Format settings, CABAC : Yes
    Format settings, ReFrames : 3 frames
    Codec ID : 27
    Duration : 3mn 23s
    Bit rate : 6 232 Kbps
    Width : 1 920 pixels
    Height : 1 080 pixels
    Display aspect ratio : 16:9
    Frame rate : 29.970 fps
    Color space : YUV
    Chroma subsampling : 4:2:0
    Bit depth : 8 bits
    Scan type : MBAFF
    Scan order : Top Field First
    Bits/(Pixel*Frame) : 0.100
    Stream size : 151 MiB (91%)

    Audio
    ID : 5409 (0x1521)
    Menu ID : 5416 (0x1528)
    Format : AC-3
    Format/Info : Audio Coding 3
    Mode extension : CM (complete main)
    Format settings, Endianness : Big
    Codec ID : 129
    Duration : 3mn 23s
    Bit rate mode : Constant
    Bit rate : 384 Kbps
    Channel(s) : 2 channels
    Channel positions : Front: L R
    Sampling rate : 48.0 KHz
    Bit depth : 16 bits
    Compression mode : Lossy
    Stream size : 9.32 MiB (6%)
    Language : English

    Link(s):
    Hidden Content:
    You must either reply or click 'Like' to see the hidden information contained here.
     
    Last edited: Jan 12, 2018
  2. Loading...


  3. CELOBRAZiL

    CELOBRAZiL Well-Known Member Capper V . I . P. Donor

    Joined:
    Oct 2, 2013
    Messages:
    4,248
    Likes Received:
    13,389
  4. Thassyo

    Thassyo Well-Known Member

    Joined:
    Oct 9, 2013
    Messages:
    2,537
    Likes Received:
    1,048
    Thanks for Demi <3
     
    CELOBRAZiL likes this.
  5. rhea

    rhea Well-Known Member

    Joined:
    Jan 6, 2014
    Messages:
    7,121
    Likes Received:
    788
    thank you :)
     
    CELOBRAZiL likes this.
  6. rvden

    rvden Well-Known Member

    Joined:
    Apr 9, 2017
    Messages:
    432
    Likes Received:
    284
    Thank you!
     
    CELOBRAZiL likes this.
  7. Volc Mi

    Volc Mi Member

    Joined:
    Jun 24, 2017
    Messages:
    120
    Likes Received:
    13
    thanks
     
    CELOBRAZiL likes this.
  8. alix1034

    alix1034 Member

    Joined:
    Feb 24, 2016
    Messages:
    56
    Likes Received:
    4
    thank
     
    CELOBRAZiL likes this.
  9. CELOBRAZiL

    CELOBRAZiL Well-Known Member Capper V . I . P. Donor

    Joined:
    Oct 2, 2013
    Messages:
    4,248
    Likes Received:
    13,389
    Added ZIPPYSHARE and FEX.NET links! :)
     
  10. VIVAfan1991

    VIVAfan1991 Active Member

    Joined:
    Jan 11, 2018
    Messages:
    150
    Likes Received:
    25
    thanks
     
    CELOBRAZiL likes this.
  11. valtersc

    valtersc Active Member

    Joined:
    Nov 19, 2014
    Messages:
    262
    Likes Received:
    199
    Thank you
     
    CELOBRAZiL likes this.
  12. ruhull.fb

    ruhull.fb Member

    Joined:
    May 19, 2017
    Messages:
    146
    Likes Received:
    23
    Thank you
     
    CELOBRAZiL likes this.
  13. jayananda

    jayananda Active Member

    Joined:
    Jan 14, 2015
    Messages:
    596
    Likes Received:
    185
    Thank You
     
    CELOBRAZiL likes this.
  14. DDLovato

    DDLovato Active Member

    Joined:
    Nov 12, 2015
    Messages:
    216
    Likes Received:
    61
    Thanks
     
    CELOBRAZiL likes this.