Los Lobos - La Bamba (MTVIdol-1080i-DD2.0)-Olgold

Discussion in 'MTV IDOL' started by Olgold, Apr 14, 2017.

  1. Olgold

    Olgold Well-Known Member Capper

    Joined:
    Aug 19, 2015
    Messages:
    436
    Likes Received:
    2,052
    Los Lobos - La Bamba
    [​IMG]
    General
    Format : MPEG-TS
    File size : 200 MiB
    Duration : 2 min 51 s
    Overall bit rate mode : Variable
    Overall bit rate : 9 552 kb/s

    Video
    Format : AVC
    Format/Info : Advanced Video Codec
    Format profile : High@L4
    Format settings, CABAC : Yes
    Format settings, ReFrames : 4 frames
    Format settings, GOP : M=8, N=24
    Duration : 2 min 50 s
    Bit rate : 8 887 kb/s
    Width : 1 920 pixels
    Height : 1 080 pixels
    Display aspect ratio : 16:9
    Frame rate : 25.000 FPS
    Standard : Component
    Color space : YUV
    Chroma subsampling : 4:2:0
    Bit depth : 8 bits
    Scan type : MBAFF
    Scan type, store method : Interleaved fields
    Scan order : Top Field First
    Bits/(Pixel*Frame) : 0.171
    Stream size : 180 MiB (90%)

    Audio
    Format : AC-3
    Format/Info : Audio Coding 3
    Mode extension : CM (complete main)
    Format settings, Endianness : Big
    Duration : 2 min 52 s
    Bit rate mode : Constant
    Bit rate : 192 kb/s
    Channel(s) : 2 channels
    Channel positions : Front: L R
    Sampling rate : 48.0 kHz
    Frame rate : 31.250 FPS (1536 spf)
    Compression mode : Lossy
    Delay relative to video : -1 s 603 ms
    Stream size : 3.95 MiB (2%)
    Password: Olgold

    Hidden Content:
    You must reply before you can see the hidden data contained here.
     
    parbulo, Bruno Bonini, rhea and 2 others like this.
  2. Loading...


  3. Dreamer

    Dreamer Lana Del Slay V . I . P. Uploader

    Joined:
    Dec 4, 2014
    Messages:
    3,210
    Likes Received:
    11,031
    Thank you!
     
  4. rvden

    rvden Well-Known Member

    Joined:
    Apr 9, 2017
    Messages:
    998
    Likes Received:
    740
    Thank you!
     
  5. CELOBRAZiL

    CELOBRAZiL Well-Known Member Capper V . I . P. Donor

    Joined:
    Oct 2, 2013
    Messages:
    9,733
    Likes Received:
    36,806
    Thank you so much! :)
     
  6. rhea

    rhea Well-Known Member

    Joined:
    Jan 6, 2014
    Messages:
    11,480
    Likes Received:
    2,207
    thanks
     
  7. Bruno Bonini

    Bruno Bonini Member

    Joined:
    Jul 22, 2017
    Messages:
    354
    Likes Received:
    11
    Thanks.
     
  8. brownbradpitt613

    brownbradpitt613 Active Member

    Joined:
    Sep 3, 2017
    Messages:
    755
    Likes Received:
    32
    thank you so much
     
  9. parbulo

    parbulo Member

    Joined:
    Mar 17, 2016
    Messages:
    398
    Likes Received:
    11
    THANKS
     
  10. yilder1

    yilder1 Well-Known Member

    Joined:
    Aug 25, 2016
    Messages:
    1,220
    Likes Received:
    229
    gracias amigo
     
  11. kimhyun

    kimhyun Member

    Joined:
    Dec 5, 2018
    Messages:
    136
    Likes Received:
    5
    thanks!
     
  12. marvec141989

    marvec141989 Member

    Joined:
    Apr 6, 2019
    Messages:
    579
    Likes Received:
    18
    gracias!!!
     
  13. danicoteca

    danicoteca Member

    Joined:
    Sep 10, 2016
    Messages:
    295
    Likes Received:
    20
    :).................................
     
  14. Malitaxd

    Malitaxd Active Member

    Joined:
    Jun 21, 2019
    Messages:
    583
    Likes Received:
    35
    thank you
     
  15. Jhon767

    Jhon767 Member

    Joined:
    Sep 5, 2019
    Messages:
    348
    Likes Received:
    6
    Para bailar la bamba
     
  16. Boyfriend

    Boyfriend Active Member

    Joined:
    Jun 15, 2020
    Messages:
    310
    Likes Received:
    213
    Reupload
     
  17. sigosiendo

    sigosiendo Active Member

    Joined:
    Oct 30, 2018
    Messages:
    900
    Likes Received:
    40
    Thanks!!!
     
  18. AssisLee

    AssisLee Member

    Joined:
    Jan 14, 2021
    Messages:
    86
    Likes Received:
    1
    Tank you so much!!