Los Lobos - La Bamba (MTVIdol-1080i-DD2.0)-Olgold

Discussion in 'MTV IDOL' started by Olgold, Apr 14, 2017.

  1. Olgold

    Olgold Well-Known Member Capper

    Joined:
    Aug 19, 2015
    Messages:
    436
    Likes Received:
    1,784
    Los Lobos - La Bamba
    [​IMG]
    General
    Format : MPEG-TS
    File size : 200 MiB
    Duration : 2 min 51 s
    Overall bit rate mode : Variable
    Overall bit rate : 9 552 kb/s

    Video
    Format : AVC
    Format/Info : Advanced Video Codec
    Format profile : High@L4
    Format settings, CABAC : Yes
    Format settings, ReFrames : 4 frames
    Format settings, GOP : M=8, N=24
    Duration : 2 min 50 s
    Bit rate : 8 887 kb/s
    Width : 1 920 pixels
    Height : 1 080 pixels
    Display aspect ratio : 16:9
    Frame rate : 25.000 FPS
    Standard : Component
    Color space : YUV
    Chroma subsampling : 4:2:0
    Bit depth : 8 bits
    Scan type : MBAFF
    Scan type, store method : Interleaved fields
    Scan order : Top Field First
    Bits/(Pixel*Frame) : 0.171
    Stream size : 180 MiB (90%)

    Audio
    Format : AC-3
    Format/Info : Audio Coding 3
    Mode extension : CM (complete main)
    Format settings, Endianness : Big
    Duration : 2 min 52 s
    Bit rate mode : Constant
    Bit rate : 192 kb/s
    Channel(s) : 2 channels
    Channel positions : Front: L R
    Sampling rate : 48.0 kHz
    Frame rate : 31.250 FPS (1536 spf)
    Compression mode : Lossy
    Delay relative to video : -1 s 603 ms
    Stream size : 3.95 MiB (2%)
    Password: Olgold

    Hidden Content:
    You must reply before you can see the hidden data contained here.
     
    parbulo, Bruno Bonini, rhea and 2 others like this.
  2. Dreamer

    Dreamer Lana Del Rey ♥ Halsey ♥ Iggy Azalea Capper V . I . P. Uploader

    Joined:
    Dec 4, 2014
    Messages:
    3,035
    Likes Received:
    5,698
    Thank you!
     
  3. rvden

    rvden Well-Known Member

    Joined:
    Apr 9, 2017
    Messages:
    523
    Likes Received:
    369
    Thank you!
     
  4. CELOBRAZiL

    CELOBRAZiL Well-Known Member Capper V . I . P. Donor

    Joined:
    Oct 2, 2013
    Messages:
    5,263
    Likes Received:
    16,812
    Thank you so much! :)
     
  5. rhea

    rhea Well-Known Member

    Joined:
    Jan 6, 2014
    Messages:
    7,842
    Likes Received:
    999
    thanks
     
  6. Bruno Bonini

    Bruno Bonini Member

    Joined:
    Jul 22, 2017
    Messages:
    89
    Likes Received:
    6
    Thanks.
     
  7. brownbradpitt613

    brownbradpitt613 Member

    Joined:
    Sep 3, 2017
    Messages:
    688
    Likes Received:
    14
    thank you so much
     
  8. parbulo

    parbulo Member

    Joined:
    Mar 17, 2016
    Messages:
    40
    Likes Received:
    1
    THANKS