Los Del Rio - Macarena (MTVIdol-1080i-DD2.0)-Olgold

Discussion in 'MTV IDOL' started by Olgold, Apr 14, 2017.

  1. Olgold

    Olgold Well-Known Member Capper

    Joined:
    Aug 19, 2015
    Messages:
    436
    Likes Received:
    1,784
    Los Del Rio - Macarena
    [​IMG]
    General
    Format : MPEG-TS
    File size : 207 MiB
    Duration : 3 min 40 s
    Overall bit rate mode : Variable
    Overall bit rate : 7 703 kb/s

    Video
    Format : AVC
    Format/Info : Advanced Video Codec
    Format profile : High@L4
    Format settings, CABAC : Yes
    Format settings, ReFrames : 4 frames
    Format settings, GOP : M=8, N=24
    Duration : 3 min 39 s
    Bit rate : 7 129 kb/s
    Width : 1 920 pixels
    Height : 1 080 pixels
    Display aspect ratio : 16:9
    Frame rate : 25.000 FPS
    Standard : Component
    Color space : YUV
    Chroma subsampling : 4:2:0
    Bit depth : 8 bits
    Scan type : MBAFF
    Scan type, store method : Interleaved fields
    Scan order : Top Field First
    Bits/(Pixel*Frame) : 0.138
    Stream size : 186 MiB (90%)

    Audio
    Format : AC-3
    Format/Info : Audio Coding 3
    Mode extension : CM (complete main)
    Format settings, Endianness : Big
    Duration : 3 min 41 s
    Bit rate mode : Constant
    Bit rate : 192 kb/s
    Channel(s) : 2 channels
    Channel positions : Front: L R
    Sampling rate : 48.0 kHz
    Frame rate : 31.250 FPS (1536 spf)
    Compression mode : Lossy
    Delay relative to video : -1 s 682 ms
    Stream size : 5.07 MiB (2%)
    Password: Olgold

    Hidden Content:
    You must reply before you can see the hidden data contained here.
     
    rhea, DiVenturas, akon111 and 2 others like this.
  2. 777josem

    777josem ProRes 1080p LPCM

    Joined:
    Sep 1, 2014
    Messages:
    3,758
    Likes Received:
    3,370
    Thank you so much!
     
    kendoh likes this.
  3. CELOBRAZiL

    CELOBRAZiL Well-Known Member Capper V . I . P. Donor

    Joined:
    Oct 2, 2013
    Messages:
    5,263
    Likes Received:
    16,812
    Thank you so much! :)
     
  4. GonzaloAgurto

    GonzaloAgurto Member

    Joined:
    Jun 24, 2017
    Messages:
    155
    Likes Received:
    3
    epa! gracias
     
  5. DiVenturas

    DiVenturas Well-Known Member

    Joined:
    Oct 21, 2015
    Messages:
    2,765
    Likes Received:
    162
  6. music2soul

    music2soul Active Member

    Joined:
    Jun 7, 2016
    Messages:
    616
    Likes Received:
    175
    Thanks.
     
  7. rhea

    rhea Well-Known Member

    Joined:
    Jan 6, 2014
    Messages:
    7,842
    Likes Received:
    999
    thanks
     
  8. rowlinglooni

    rowlinglooni Member

    Joined:
    Mar 21, 2017
    Messages:
    320
    Likes Received:
    24
  9. brownbradpitt613

    brownbradpitt613 Member

    Joined:
    Sep 3, 2017
    Messages:
    688
    Likes Received:
    14
    thanks!
     
  10. ramazanksmc

    ramazanksmc New Member

    Joined:
    Nov 7, 2017
    Messages:
    3
    Likes Received:
    0
    thankyou
     
  11. trevorme

    trevorme Member

    Joined:
    Jan 12, 2017
    Messages:
    477
    Likes Received:
    16
    thanks
     
  12. MarkQ

    MarkQ Member

    Joined:
    Feb 11, 2014
    Messages:
    47
    Likes Received:
    0
    Many Thanks
     
  13. lovegungun

    lovegungun Member

    Joined:
    Dec 8, 2017
    Messages:
    88
    Likes Received:
    7
  14. Praveen867

    Praveen867 Member

    Joined:
    Nov 14, 2016
    Messages:
    632
    Likes Received:
    22
    tyyyyyyyyyy
     
  15. olegleonant

    olegleonant New Member

    Joined:
    Dec 27, 2017
    Messages:
    4
    Likes Received:
    0
  16. MegaPaw

    MegaPaw New Member

    Joined:
    Apr 26, 2018
    Messages:
    1
    Likes Received:
    0
    Thanks a ton for this.
     
  17. jsgh1983

    jsgh1983 Member

    Joined:
    Mar 30, 2018
    Messages:
    70
    Likes Received:
    3
    thanks!
     
  18. orionN

    orionN Active Member

    Joined:
    Jan 26, 2018
    Messages:
    616
    Likes Received:
    38
    thanksss
     
  19. ETAOI

    ETAOI Member

    Joined:
    Feb 13, 2017
    Messages:
    379
    Likes Received:
    2
    !!!!!!!!!!!!