DVD Los Bukis - Navidad Sin Ti (1987) [DVD Vob Clean] [TV Performance/Presentación En TV]

Discussion in 'SD' started by jimmyjsr, Feb 10, 2019.

  1. jimmyjsr

    jimmyjsr Jimmy Segura Ramírez

    Joined:
    Dec 24, 2018
    Messages:
    176
    Likes Received:
    60
    [​IMG]


    Code:
    Format                         : MPEG-PS
    File size                      : 100 MiB
    Duration                       : 4 min 1 s
    Overall bit rate mode          : Variable
    Overall bit rate               : 3 492 kb/s
    
    Video
    ID                             : 224 (0xE0)
    Format                         : MPEG Video
    Format version                 : Version 2
    Format profile                 : Main@Main
    Format settings, BVOP          : Yes
    Format settings, Matrix        : Default
    Format settings, GOP           : M=3, N=15
    Format settings, picture struc : Frame
    Duration                       : 4 min 1 s
    Bit rate mode                  : Variable
    Bit rate                       : 3 231 kb/s
    Maximum bit rate               : 4 500 kb/s
    Width                          : 720 pixels
    Height                         : 480 pixels
    Display aspect ratio           : 4:3
    Frame rate                     : 29.970 (30000/1001) FPS
    Standard                       : NTSC
    Color space                    : YUV
    Chroma subsampling             : 4:2:0
    Bit depth                      : 8 bits
    Scan type                      : Interlaced
    Scan order                     : Bottom Field First
    Compression mode               : Lossy
    Bits/(Pixel*Frame)             : 0.312
    Time code of first frame       : 00:42:16:28
    Time code source               : Group of pictures header
    GOP, Open/Closed               : Closed
    Stream size                    : 92.9 MiB (93%)
    
    Audio
    ID                             : 189 (0xBD)-128 (0x80)
    Format                         : AC-3
    Format/Info                    : Audio Coding 3
    Format settings, Endianness    : Big
    Muxing mode                    : DVD-Video
    Duration                       : 4 min 1 s
    Bit rate mode                  : Constant
    Bit rate                       : 192 kb/s
    Channel(s)                     : 2 channels
    Channel positions              : Front: L R
    Sampling rate                  : 48.0 kHz
    Frame rate                     : 31.250 FPS (1536 SPF)
    Bit depth                      : 16 bits
    Compression mode               : Lossy
    Delay relative to video        : 18 ms
    Stream size                    : 5.52 MiB (5%)
    Service kind                   : Complete Main
    

    Hidden Content:
    You must reply before you can see the hidden data contained here.
     
    Rubn4 likes this.
  2. Loading...


  3. Jorge Barrionuevo

    Jorge Barrionuevo Well-Known Member

    Joined:
    Jun 9, 2015
    Messages:
    1,821
    Likes Received:
    868
    Muchas Gracias!
     
    jimmyjsr likes this.