Los Bukis - Cómo Fui A Enamorarme De Ti (1989) [Clean]

Discussion in 'SD' started by jimmyjsr, Feb 10, 2019.

  1. jimmyjsr

    jimmyjsr Jimmy Segura Ramírez

    Joined:
    Dec 24, 2018
    Messages:
    234
    Likes Received:
    88
    [​IMG]


    Code:
    Format                         : MPEG-PS
    File size                      : 201 MiB
    Duration                       : 4 min 28 s
    Overall bit rate mode          : Variable
    Overall bit rate               : 6 294 kb/s
    
    Video
    ID                             : 224 (0xE0)
    Format                         : MPEG Video
    Format version                 : Version 2
    Format profile                 : Main@Main
    Format settings, BVOP          : Yes
    Format settings, Matrix        : Default
    Format settings, GOP           : M=3, N=15
    Format settings, picture struc : Frame
    Duration                       : 4 min 28 s
    Bit rate mode                  : Variable
    Bit rate                       : 5 945 kb/s
    Maximum bit rate               : 8 000 kb/s
    Width                          : 720 pixels
    Height                         : 480 pixels
    Display aspect ratio           : 4:3
    Frame rate                     : 29.970 (30000/1001) FPS
    Standard                       : NTSC
    Color space                    : YUV
    Chroma subsampling             : 4:2:0
    Bit depth                      : 8 bits
    Scan type                      : Interlaced
    Scan order                     : Bottom Field First
    Compression mode               : Lossy
    Bits/(Pixel*Frame)             : 0.574
    Time code of first frame       : 00:00:00:00
    Time code source               : Group of pictures header
    GOP, Open/Closed               : Open
    GOP, Open/Closed of first fram : Closed
    Stream size                    : 190 MiB (94%)
    
    Audio
    ID                             : 192 (0xC0)
    Format                         : MPEG Audio
    Format version                 : Version 1
    Format profile                 : Layer 2
    Duration                       : 4 min 28 s
    Bit rate mode                  : Constant
    Bit rate                       : 224 kb/s
    Channel(s)                     : 2 channels
    Sampling rate                  : 48.0 kHz
    Compression mode               : Lossy
    Stream size                    : 7.16 MiB (4%)
    

    Hidden Content:
    You must reply before you can see the hidden data contained here.
     
    josea69 and Rubn4 like this.
  2. Loading...


  3. maxinick7

    maxinick7 Well-Known Member

    Joined:
    Jan 24, 2017
    Messages:
    772
    Likes Received:
    546
    gracias
     
    jimmyjsr likes this.
  4. parbulo

    parbulo Member

    Joined:
    Mar 17, 2016
    Messages:
    291
    Likes Received:
    4
    gracias
     
    jimmyjsr likes this.
  5. jonathancoco

    jonathancoco Member

    Joined:
    Mar 1, 2019
    Messages:
    77
    Likes Received:
    0
  6. mastodontosaurio

    mastodontosaurio Well-Known Member

    Joined:
    Sep 29, 2015
    Messages:
    1,342
    Likes Received:
    72
    GRACIAS POR EL APORTE
     
  7. manolo2020

    manolo2020 Member

    Joined:
    Oct 16, 2016
    Messages:
    342
    Likes Received:
    3
    bonito recuerdo de los bukis
     
  8. josea69

    josea69 Member

    Joined:
    Jul 25, 2019
    Messages:
    32
    Likes Received:
    0
    genial gracias
     
  9. aepr

    aepr Member

    Joined:
    Jul 12, 2019
    Messages:
    179
    Likes Received:
    9
    gracias
     
  10. mrjohn246

    mrjohn246 Member

    Joined:
    May 30, 2018
    Messages:
    258
    Likes Received:
    3
    Gracias